<?xml version="1.0" standalone="no"?>
<!DOCTYPE svg PUBLIC "-//W3C//DTD SVG 1.1//EN" "http://www.w3.org/Graphics/SVG/1.1/DTD/svg11.dtd" >
<!--
2013-9-30: Created.
-->
<svg>
<metadata>
Created by iconfont
</metadata>
<defs>

<font id="kdfont" horiz-adv-x="1024" >
  <font-face
    font-family="kdfont"
    font-weight="500"
    font-stretch="normal"
    units-per-em="1024"
    ascent="896"
    descent="-128"
  />
    <missing-glyph />
    
    <glyph glyph-name="shouqi" unicode="&#58880;" d="M384 447.991L384 383.994 704 383.994 704 448.001ZM832 768L256 768c-35.346 0-64-28.654-64-64l0-576c0-35.347 28.654-64 64-64l576 0c35.347 0 64 28.653 64 64L896 704C896 739.346 867.347 768 832 768zM832 160c0-17.673-14.327-32-32-32L288 128c-17.673 0-32 14.327-32 32L256 672c0 17.673 14.327 32 32 32l512 0c17.673 0 32-14.327 32-32L832 160z"  horiz-adv-x="1024" />

    
    <glyph glyph-name="shanchu-s" unicode="&#59054;" d="M780.8 185.60000000000002L582.4 390.4l198.4 198.4c19.2 19.2 19.2 51.2 0 70.4-19.2 19.2-51.2 19.2-70.4 0L518.4 454.4 313.6 652.8c-19.2 19.2-51.2 19.2-76.8 0-19.2-19.2-19.2-51.2 0-76.8l198.4-198.4-198.4-198.4c-19.2-19.2-19.2-51.2 0-70.4 19.2-19.2 51.2-19.2 70.4 0l198.4 198.4 198.4-198.4c19.2-19.2 51.2-19.2 76.8 0C806.4 134.39999999999998 806.4 166.39999999999998 780.8 185.60000000000002z"  horiz-adv-x="1024" />

    
    <glyph glyph-name="daiban" unicode="&#58915;" d="M840.704 691.2l-175.8208-302.848L841.3696 76.8h18.4832a51.2 51.2 0 1 0 0-102.4H153.6a51.2 51.2 0 0 0 0 102.4h29.0816l176.4352 310.8352L183.2448 691.2H153.6a51.2 51.2 0 1 0 0 102.4h706.2528a51.2 51.2 0 1 0 0-102.4h-19.1488zM318.976 640l155.4432-228.3008 75.1616 0.4096L705.024 640H319.0272z"  horiz-adv-x="1024" />

    
    <glyph glyph-name="baobiao" unicode="&#58916;" d="M153.6 742.4h665.6a51.2 51.2 0 0 0 51.2-51.2v-716.8a51.2 51.2 0 0 0-51.2-51.2H153.6a51.2 51.2 0 0 0-51.2 51.2V691.2a51.2 51.2 0 0 0 51.2 51.2z m102.4-460.8v-204.8h51.2v204.8H256z m204.8-51.2v-153.6h51.2v153.6H460.8z m204.8 153.6v-307.2h51.2v307.2h-51.2z m-178.3296-9.216l250.2656 148.48-26.112 44.032-215.6544-128-113.408 116.0192-155.904-103.936 28.3648-42.5984 120.576 80.384 111.872-114.432zM921.6 25.6V742.4a51.2 51.2 0 0 1-51.2 51.2H204.8V844.8h665.6a102.4 102.4 0 0 0 102.4-102.4v-716.8h-51.2z"  horiz-adv-x="1024" />

    
    <glyph glyph-name="gonggongshuju" unicode="&#58917;" d="M847.2576-25.6H49.0496L160.768 482.2528C160.768 512.8192 189.44 537.6 224.6144 537.6h734.4128c35.2256 0 63.8464-24.7808 63.8464-55.3472l-111.7696-452.5056c0-30.5664-28.5696-55.3472-63.8464-55.3472zM307.2 332.8v-51.2h512v51.2H307.2z m-51.2-153.6v-51.2h512v51.2H256z m615.2704 408.4736H178.3808c-35.2768 0-65.536-17.0496-65.536-51.5072L1.1776 37.632V730.368c0 34.4064 28.6208 62.3104 63.8464 62.3104h319.3344c35.2256 0 75.3664-27.904 75.3664-62.3104v-39.424h349.952c35.2768 0 60.0064-20.0192 60.0064-54.4768l1.6384-48.7936z"  horiz-adv-x="1024" />

    
    <glyph glyph-name="liebiao" unicode="&#58918;" d="M256.7168 790.5792V691.2h513.5872V790.5792H870.4c28.3136 0 51.2512-22.6816 51.2512-51.0464v-714.0864c0-28.16-22.784-51.0464-51.2-51.0464H153.6c-28.2624 0-51.2 22.6816-51.2 51.0464V739.5328c0 28.16 22.784 51.0464 51.2 51.0464h103.1168zM308.0704 844.8h410.88v-102.4H308.0704V844.8zM256.7168 486.4v-51.2h513.5872V486.4H256.7168z m0-204.8v-51.2h513.5872v51.2H256.7168z"  horiz-adv-x="1024" />

    
    <glyph glyph-name="jichuziliao" unicode="&#58919;" d="M466.688 828.672c23.552 15.8208 61.6448 15.872 85.1968 0l385.4848-259.6864c23.552-15.872 23.552-41.472 0-57.344l-385.4848-259.6864c-23.552-15.872-61.5936-15.872-85.1968 0L81.2544 511.5904c-23.552 15.872-23.552 41.5232 0 57.3952l385.4336 259.6864zM81.7664 204.3904c-24.2176 15.872-24.2176 41.5232 0 57.3952l29.3888-42.496c6.7584 4.4544 6.7584 23.1424 0 27.5456l396.1856-259.6352c6.4-4.1984 22.3232-4.1984 28.7232 0l396.1856 259.6352c-6.7584-4.4032-6.7584-23.04 0-27.4944l29.3888 42.4448c24.2176-15.872 24.2176-41.472 0-57.344l-396.1344-259.6864c-24.2176-15.872-63.3856-15.872-87.552 0l-396.1856 259.6352z m16.9984 185.2416c6.7584 4.7616 6.7584 24.7808 0 29.5424l396.1856-278.6304c6.4-4.5568 22.3232-4.5568 28.7232 0l396.1856 278.6304c-6.7584-4.7616-6.7584-24.7808 0-29.5424L949.248 435.2c24.2176-16.9984 24.2176-44.544 0-61.5936l-396.1344-278.6304c-24.2176-17.0496-63.3856-17.0496-87.552 0l-396.2368 278.6304c-24.1664 16.9984-24.2176 44.544 0 61.5936l29.44-45.568z"  horiz-adv-x="1024" />

    
    <glyph glyph-name="quanxianguanli" unicode="&#58920;" d="M513.024 793.6H312.32a354.1504 354.1504 0 0 0-157.7984-187.904v-222.5664h358.5024V793.6z m353.792-411.8528h-353.0752v-405.1456c115.2 34.8672 200.192 93.696 261.4784 170.2912a479.8464 479.8464 0 0 1 77.3632 138.0352c5.8368 15.8208 10.5984 32 14.2336 48.4352v48.384zM799.4368 896c0-103.7824 70.9632-194.4064 172.4416-220.3648v-348.5184S923.648-24.064 512-128c-398.3872 103.9872-459.8784 455.1168-459.8784 455.1168V675.6352C151.2448 700.8768 224.5632 789.9648 224.5632 896h574.8736z"  horiz-adv-x="1024" />

    
    <glyph glyph-name="baogao" unicode="&#58921;" d="M514.814593 128.383808h-5.629186l2.814593-2.814593 2.865767 2.814593z m102.348825 0l195.383908-195.332734-54.296052-54.244877-246.251274 246.2001-253.006297-253.006297L204.697651-73.755122 406.836582 128.383808H153.523238c-28.248276 0-51.174413 23.233183-51.174412 51.072064V688.436582c0 0.972314 0 1.893453 0.102348 2.865767H51.174413a51.174413 51.174413 0 1 0 0 102.348825h409.395302V844.825587h102.348826v-51.174413h409.395302a51.174413 51.174413 0 0 0 0-102.348825h-51.276762a50.509145 50.509145 0 0 0 0.102349-2.865767v-508.98071c0-28.197101-22.772614-51.072064-51.174413-51.072064h-252.801599zM255.872064 435.430285v-153.523239h51.174413V435.430285H255.872064z m153.523238 153.523238v-307.046477h51.174413V588.953523H409.395302z m153.523239-102.348825v-204.697652h51.174413V486.604698h-51.174413z m153.523238 51.174412v-255.872064h51.174413V537.77911h-51.174413z"  horiz-adv-x="1024" />

    
    <glyph glyph-name="shanglv" unicode="&#58922;" d="M972.8 394.9568V25.6a51.2 51.2 0 0 0-51.2-51.2H102.4a51.2 51.2 0 0 0-51.2 51.2V395.9296 384h358.4v-102.4h204.8v102.4h358.4v10.9568zM614.4 435.2V486.4H409.6v-51.2H137.4208C102.656 435.2 70.9632 444.928 51.2 464.4864V588.8a51.2 51.2 0 0 0 51.2 51.2h256V691.2a102.4 102.4 0 0 0 102.4 102.4h102.4a102.4 102.4 0 0 0 102.4-102.4v-51.2h256a51.2 51.2 0 0 0 51.2-51.2v-126.0544c-18.432-18.432-47.616-27.5456-81.3056-27.5456H614.4z m0 204.8V691.2a51.2 51.2 0 0 1-51.2 51.2H460.8a51.2 51.2 0 0 1-51.2-51.2v-51.2h204.8z"  horiz-adv-x="1024" />

    
    <glyph glyph-name="shoukuanxinxi" unicode="&#58923;" d="M102.4 742.4h819.2a51.2 51.2 0 0 0 51.2-51.2v-665.6a51.2 51.2 0 0 0-51.2-51.2H102.4a51.2 51.2 0 0 0-51.2 51.2V691.2a51.2 51.2 0 0 0 51.2 51.2z m512-204.8a153.6 153.6 0 0 1-153.6-153.6v-51.2a153.6 153.6 0 0 1 153.6-153.6h358.4V537.6h-358.4z m25.6-51.2H972.8v-256h-332.8a128 128 0 1 0 0 256z m51.2-204.8a76.8 76.8 0 1 1 0 153.6 76.8 76.8 0 0 1 0-153.6z"  horiz-adv-x="1024" />

    
    <glyph glyph-name="xitongjicheng" unicode="&#58924;" d="M102.4 742.4h870.4a51.2 51.2 0 0 0 51.2-51.2v-102.4a51.2 51.2 0 0 0-51.2-51.2H102.4a51.2 51.2 0 0 0-51.2 51.2V691.2a51.2 51.2 0 0 0 51.2 51.2z m691.2-51.2a25.6 25.6 0 0 1-25.6-25.6v-51.2a25.6 25.6 0 0 1 25.6-25.6h102.4a25.6 25.6 0 0 1 25.6 25.6v51.2a25.6 25.6 0 0 1-25.6 25.6h-102.4zM102.4 486.4h870.4a51.2 51.2 0 0 0 51.2-51.2v-102.4a51.2 51.2 0 0 0-51.2-51.2H102.4a51.2 51.2 0 0 0-51.2 51.2V435.2a51.2 51.2 0 0 0 51.2 51.2z m691.2-51.2a25.6 25.6 0 0 1-25.6-25.6v-51.2a25.6 25.6 0 0 1 25.6-25.6h102.4a25.6 25.6 0 0 1 25.6 25.6v51.2a25.6 25.6 0 0 1-25.6 25.6h-102.4zM102.4 230.4h870.4a51.2 51.2 0 0 0 51.2-51.2v-102.4a51.2 51.2 0 0 0-51.2-51.2H102.4a51.2 51.2 0 0 0-51.2 51.2v102.4a51.2 51.2 0 0 0 51.2 51.2z m691.2-51.2a25.6 25.6 0 0 1-25.6-25.6v-51.2a25.6 25.6 0 0 1 25.6-25.6h102.4a25.6 25.6 0 0 1 25.6 25.6v51.2a25.6 25.6 0 0 1-25.6 25.6h-102.4z"  horiz-adv-x="1024" />

    
    <glyph glyph-name="zaiban" unicode="&#58925;" d="M921.6 689.92c-15.36-2.7648-29.3376-9.8816-40.2432-20.7872l-419.1232-419.6352c-1.3312-2.5088-1.9968-3.328-2.2528-4.4032l-49.3056-180.7872a31.0784 31.0784 0 0 1 7.8848-29.9008 30.8224 30.8224 0 0 1 29.696-7.7824l179.4048 48.9984a7.2704 7.2704 0 0 1 6.2464 2.048L921.6 365.568V25.6c0-28.2624-22.9888-51.2-51.5584-51.2H205.1584A51.3024 51.3024 0 0 0 153.6 25.6V742.4c0 28.2624 22.9888 51.2 51.5584 51.2h664.8832C898.5088 793.6 921.6 770.816 921.6 742.4v-52.48zM307.2 588.8v-51.2h307.2V588.8H307.2z m0-153.6v-51.2h153.6V435.2H307.2z m619.9808 20.2752l-73.4208 74.6496 74.6496 69.8368c7.0144 7.0656 20.736 6.0416 28.8256-2.0992l43.0592-43.1616a23.552 23.552 0 0 0 7.0656-16.384 17.408 17.408 0 0 0-4.9152-12.3904l-75.264-70.4512z m-404.6848-245.8112L798.1056 486.4 870.4 412.8768l-273.8688-272.4864-124.3648-49.664 50.3296 118.9376z"  horiz-adv-x="1024" />

    
    <glyph glyph-name="zhushuju" unicode="&#58926;" d="M272.384 76.8H105.2672C75.4176 76.8 51.2 99.7376 51.2 128V691.2c0 28.2624 24.2176 51.2 54.0672 51.2h864.6656C999.7824 742.4 1024 719.4624 1024 691.2v-563.2c0-28.2624-24.2176-51.2-54.0672-51.2h-160.256l-40.0896 51.2h205.9776V691.2H99.328v-563.2h212.3776l-28.16-38.2976L272.384 76.8z m441.6 102.4l-174.7456 205.1584L361.216 179.2H203.6736a51.2 51.2 0 0 0-51.2 51.2V588.8a51.2 51.2 0 0 0 51.2 51.2H870.4a51.2 51.2 0 0 0 51.2-51.2v-358.4a51.2 51.2 0 0 0-51.2-51.2h-156.416z m-180.736 106.496l284.672-310.7328H254.9248l278.3744 310.784z"  horiz-adv-x="1024" />

    
    <glyph glyph-name="xitongguanli" unicode="&#58927;" d="M309.8624 332.8a230.3488 230.3488 0 0 1 204.9024-203.52v-256.7168c-249.856 11.776-450.56 211.2512-463.4624 460.2368h258.56z m-0.1024 48.9472H51.2C63.4368 639.5392 276.7872 844.8 538.2144 844.8c269.2608 0 487.5264-217.7536 487.5264-486.4 0-259.6352-203.8784-471.7568-460.6464-485.6832v256.7168A230.3488 230.3488 0 0 1 768.512 332.8h254.976v48.9472h-254.8736a230.2976 230.2976 0 0 1-203.52 204.3904V842.24h-50.3296v-256a230.2976 230.2976 0 0 1-205.0048-204.4928zM539.4944 179.2a179.2 179.2 0 1 0 0 358.4 179.2 179.2 0 0 0 0-358.4z"  horiz-adv-x="1025" />

    
    <glyph glyph-name="shezhi" unicode="&#58928;" d="M358.4 383.8976a153.7024 153.7024 0 0 0 153.6 153.4976c84.6848 0 153.6-68.8128 153.6-153.4976A153.7536 153.7536 0 0 0 512 230.4c-84.6848 0-153.6 68.864-153.6 153.4976zM401.2544 844.8c0-86.1696-71.7312-156.0576-160.256-156.0576a162.7136 162.7136 0 0 0-79.616 20.5824L51.2 521.728c48.2304-26.9312 80.6912-77.5168 80.6912-135.4752S99.4304 277.7088 51.2 250.7776l110.1824-187.5968a162.7136 162.7136 0 0 0 79.616 20.5824c88.5248 0 160.256-69.8368 160.256-156.0576h218.2144c0 86.2208 71.7312 156.0576 160.256 156.0576a162.816 162.816 0 0 0 79.616-20.5824l110.1824 187.5968c-48.2304 26.9312-80.6912 77.5168-80.6912 135.4752s32.4608 108.544 80.6912 135.4752l-110.1824 187.5968a162.816 162.816 0 0 0-79.616-20.5824c-88.5248 0-160.256 69.888-160.256 156.0576H401.2544z"  horiz-adv-x="1024" />

    
    <glyph glyph-name="tianjia" unicode="&#58929;" d="M460.8 435.2H102.4a51.2 51.2 0 1 1 0-102.4h358.4v-358.4a51.2 51.2 0 0 1 102.4 0v358.4h358.4a51.2 51.2 0 0 1 0 102.4h-358.4V793.6a51.2 51.2 0 1 1-102.4 0v-358.4z"  horiz-adv-x="1024" />

    
    <glyph glyph-name="renwu" unicode="&#58930;" d="M307.2 793.6v-102.4h409.6V793.6h153.6c28.2624 0 51.2-22.784 51.2-51.2v-716.8c0-28.2624-22.784-51.2-51.2-51.2H153.6c-28.2624 0-51.2 22.784-51.2 51.2V742.4c0 28.2624 22.784 51.2 51.2 51.2h153.6z m358.4-316.0576l-211.7632-215.6032-9.1136-9.3184-86.4256 88.064a29.7472 29.7472 0 0 1-51.0976-21.4016c0-8.192 3.072-15.872 8.8064-21.7088l107.6224-109.568a29.4912 29.4912 0 0 1 42.2912 0l242.0736 246.3744a30.72 30.72 0 0 1 0 43.1104 29.5936 29.5936 0 0 1-42.3936 0zM358.4 844.8h307.2v-102.4H358.4V844.8z"  horiz-adv-x="1024" />

    
    <glyph glyph-name="zhinengjizhang" unicode="&#58931;" d="M358.4 640V793.6h51.2v-819.2H358.4v153.6H102.4V640h256zM0 793.6h204.8v-51.2H0V793.6z m0-768h204.8v-51.2H0v51.2z m819.2 0h204.8v-51.2h-204.8v51.2z m0 768h204.8v-51.2h-204.8V793.6zM0 742.4h51.2v-153.6H0V742.4z m0-563.2h51.2v-153.6H0v153.6zM972.8 742.4h51.2v-153.6h-51.2V742.4z m0-563.2h51.2v-153.6h-51.2v153.6zM460.8 640h460.8v-512H460.8V640z"  horiz-adv-x="1024" />

    
    <glyph glyph-name="weituojiaoyi" unicode="&#58932;" d="M440.32 179.2H372.0704a68077.824 68077.824 0 0 0-148.4288 113.3568c-44.032 31.744-85.2992 44.6464-121.2416 41.728V742.4a51.2 51.2 0 0 0 51.2 51.2h716.8a51.2 51.2 0 0 0 51.2-51.2v-411.5456a1678.848 1678.848 0 0 0-24.9856 24.3712l-2.2016 2.2016c-20.3264 19.6096-42.9056 26.7776-62.5664 26.5728H492.1856c-17.408-1.3312-33.792-5.12-51.0464-14.2336-33.4848-17.5616-55.6032-49.2032-54.6816-91.904 0.9216-40.96 21.0944-77.312 53.8624-98.6624zM307.2 640v-51.2h409.6V640H307.2z m0-153.6v-51.2h409.6V486.4H307.2z m665.6-273.92v-185.7024a51.2 51.2 0 0 0-51.2-51.2H346.7776s-17.0496-5.4272-31.5904 7.1168a49923.4304 49923.4304 0 0 0-258.1504 229.5808c-12.6464 14.4896-0.8192 39.68-0.8192 39.68s37.888 70.7584 136.192 0a46035.968 46035.968 0 0 1 164.1472-125.2864h258.3552l81.2032 10.5984s-14.5408 58.0608-32.768 59.2896c-50.688 3.6352-142.3872 10.7008-171.8272 15.9744-33.3312 7.3216-53.1968 34.9696-53.8624 66.4064C436.6336 327.8848 492.1856 332.8 492.1856 332.8h340.7872s13.824 0.3072 27.136-13.5168c13.568-13.7216 97.6896-94.208 112.6912-106.752z"  horiz-adv-x="1024" />

    
    <glyph glyph-name="yingxiang" unicode="&#58933;" d="M765.952 741.376H61.44c-33.6384 0-61.184-27.5456-61.184-61.184V87.552c0-33.6384 27.5456-61.184 61.1328-61.184h694.4768c33.5872 0 61.1328 27.5456 61.1328 61.184v144.2304c0 9.0112 10.9056 13.5168 17.3056 7.168l154.624-154.7264a18.944 18.944 0 0 1 32.256 13.312V670.208a18.8928 18.8928 0 0 1-32.256 13.312l-154.624-154.624a10.1376 10.1376 0 0 0-17.3056 7.1168V690.2784a51.2 51.2 0 0 1-51.0464 51.0976zM306.5344 205.1584V544.2048c0 7.9872 8.8064 12.8 15.5648 8.4992l251.7504-160.3072a10.0864 10.0864 0 0 0 0-17.0496l-267.264-170.1888z"  horiz-adv-x="1024" />

    
    <glyph glyph-name="fuxuankuangweixuanzhong_yuan" unicode="&#58934;" d="M512-14.222222A398.222222 398.222222 0 1 1 512 782.222222a398.222222 398.222222 0 0 1 0-796.444444z m0-56.888889A455.111111 455.111111 0 1 0 512 839.111111a455.111111 455.111111 0 0 0 0-910.222222z"  horiz-adv-x="1024" />

    
    <glyph glyph-name="fuxuankuangxuanzhong_yuan" unicode="&#58936;" d="M453.745778 289.336889L324.949333 418.133333a44.544 44.544 0 0 1-62.919111 0.341334 44.373333 44.373333 0 0 1 0.341334-62.919111L426.666667 191.260444a44.544 44.544 0 0 1 62.919111-0.341333 43.804444 43.804444 0 0 1 11.662222 20.764445l258.844444 258.844444a44.487111 44.487111 0 0 1 0.284445 62.862222 44.373333 44.373333 0 0 1-62.862222-0.341333l-243.768889-243.712zM512-71.111111A455.111111 455.111111 0 1 0 512 839.111111a455.111111 455.111111 0 0 0 0-910.222222z"  horiz-adv-x="1024" />

    
    <glyph glyph-name="fuxuankuangxuanzhong_fang" unicode="&#58937;" d="M113.777778 611.384889A113.777778 113.777778 0 0 0 227.726222 725.333333h511.658667A113.777778 113.777778 0 0 0 853.333333 611.384889v-511.658667A113.777778 113.777778 0 0 0 739.384889-14.222222H227.726222A113.777778 113.777778 0 0 0 113.777778 99.726222V611.384889z m225.678222-243.484445a54.442667 54.442667 0 0 1-77.198222 0 54.442667 54.442667 0 0 1 0-77.198222l125.781333-124.074666a54.328889 54.328889 0 0 1 42.211556-15.928889 54.272 54.272 0 0 1 46.307555 15.416889l270.222222 270.222222a54.499556 54.499556 0 0 1-0.056888 77.084444 54.385778 54.385778 0 0 1-77.084445 0.113778l-237.056-237.112889-93.127111 91.477333z"  horiz-adv-x="1024" />

    
    <glyph glyph-name="fuxuankuangweixuanzhong_fang" unicode="&#58938;" d="M170.666667 611.384889v-511.658667A56.888889 56.888889 0 0 1 227.726222 42.666667h511.658667A56.888889 56.888889 0 0 1 796.444444 99.726222V611.384889A56.888889 56.888889 0 0 1 739.384889 668.444444H227.726222A56.888889 56.888889 0 0 1 170.666667 611.384889z m-56.888889 0A113.777778 113.777778 0 0 0 227.726222 725.333333h511.658667A113.777778 113.777778 0 0 0 853.333333 611.384889v-511.658667A113.777778 113.777778 0 0 0 739.384889-14.222222H227.726222A113.777778 113.777778 0 0 0 113.777778 99.726222V611.384889z"  horiz-adv-x="1024" />

    
    <glyph glyph-name="bianji" unicode="&#58939;" d="M341.333333 327.111111l-56.888889-170.666667c-1.820444-27.989333 1.137778-39.651556 0-56.888888 15.132444 3.185778 23.04 0 56.888889 0-22.755556 0-19.911111 0.341333 0 0l170.666667 56.888888c-1.137778-5.859556 0.967111-5.12 0 0l455.111111 455.111112c-7.964444-13.653333 0 6.257778 0 0 0 52.565333-10.410667 77.141333-56.888889 113.777777-36.465778 46.421333-61.098667 56.888889-113.777778 56.888889 6.428444 0-13.482667-8.021333 0 0l-455.111111-455.111111c-4.266667-0.455111-4.949333-1.365333 0 0z m455.111111 227.555556l-56.888888 56.888889 56.888888 113.777777c33.223111 2.673778 48.526222 1.536 56.888889 0l56.888889-56.888889c-2.844444-5.347556 0-12.174222 0 0 0-24.462222-1.991111-29.525333 0-56.888888l-113.777778-56.888889z m-398.222222-227.555556l284.444445 227.555556 56.888889-56.888889-227.555556-284.444445-170.666667-56.888889 56.888889 170.666667z m455.111111-113.777778c-1.706667 31.630222 56.832 31.459556 56.888889 0v-227.555555c0-24.348444-31.288889-56.888889-56.888889-56.888889H170.666667c-72.533333 0-113.777778 41.870222-113.777778 113.777778V668.444444c0 71.907556 41.244444 113.777778 113.777778 113.777778h284.444444c43.690667 0 43.690667-59.619556 0-56.888889H170.666667c-38.172444-2.730667-55.125333-19.911111-56.888889-56.888889v-625.777777c1.763556-36.977778 18.716444-54.101333 56.888889-56.888889h625.777777c48.128 2.787556 55.125333 10.581333 56.888889 56.888889v170.666666z"  horiz-adv-x="1024" />

    
    <glyph glyph-name="goutong" unicode="&#58940;" d="M386.7136 38.912l-183.1424-116.224v201.0112C112.5888 202.5472 51.2 312.6272 51.2 441.6 51.2 664.32 253.44 844.8 503.808 844.8 711.8848 844.8 921.6 664.2688 921.6 441.6c0-222.72-167.8336-412.0576-417.792-412.0576a1000.96 1000.96 0 0 0-117.0944 9.3184z m-148.224 311.0912a266.1376 266.1376 0 0 1 234.1376-140.2368 266.2912 266.2912 0 0 1 238.4896 148.6848 38.5536 38.5536 0 0 1-16.9984 51.5072 37.888 37.888 0 0 1-51.0976-17.152 190.208 190.208 0 0 0-170.3936-106.24c-70.5024 0-134.144 38.912-167.2704 100.2496a37.888 37.888 0 0 1-51.712 15.3088 38.5536 38.5536 0 0 1-15.1552-52.1216z"  horiz-adv-x="1024" />

    
    <glyph glyph-name="gengduo" unicode="&#58942;" d="M483.555556-71.111111a426.666667 426.666667 0 1 0 0 853.333333 426.666667 426.666667 0 0 0 0-853.333333z m0 56.888889a369.777778 369.777778 0 1 1 0 739.555555 369.777778 369.777778 0 0 1 0-739.555555z m-170.666667 341.333333a42.666667 42.666667 0 1 0 0 85.333333 42.666667 42.666667 0 0 0 0-85.333333z m170.666667 0a42.666667 42.666667 0 1 0 0 85.333333 42.666667 42.666667 0 0 0 0-85.333333z m170.666666 0a42.666667 42.666667 0 1 0 0 85.333333 42.666667 42.666667 0 0 0 0-85.333333z"  horiz-adv-x="1024" />

    
    <glyph glyph-name="quanping" unicode="&#58943;" d="M58.083556-14.222222H113.777778v-56.888889h-5.290667l2.56-2.901333H340.764444c31.345778 0 56.149333 7.566222 56.149334-23.893334 0-31.345778-24.803556-29.297778-56.149334-29.297778H58.424889a56.490667 56.490667 0 0 0-40.448 17.066667 50.858667 50.858667 0 0 0-17.92 39.822222v284.444445C0 245.532444-2.275556 270.222222 29.013333 270.222222c31.402667 0 26.510222-24.689778 26.510223-56.092444v-225.507556l2.503111-2.844444zM964.551111 782.222222H910.222222V839.111111h3.982222l-1.877333 2.104889h-229.774222c-31.345778 0-56.149333-7.623111-56.149333 23.836444 0 31.402667 24.803556 29.297778 56.149333 29.297778h282.396444c15.872 0 30.151111-6.542222 40.391111-17.066666a50.858667 50.858667 0 0 0 17.976889-39.822223v-284.444444c0-31.402667 2.332444-56.035556-29.013333-56.035556-31.402667 0-26.510222 24.632889-26.510222 56.092445V778.524444L964.551111 782.222222zM56.206222 778.524444v-225.450666c0-31.459556 4.892444-56.092444-26.510222-56.092445-31.345778 0-29.013333 24.632889-29.013333 56.092445v284.444444C0.682667 854.357333 7.623111 867.953778 18.602667 877.226667a56.490667 56.490667 0 0 0 40.448 17.066666h282.396444c31.345778 0 56.149333 2.104889 56.149333-29.297777 0-31.459556-24.803556-23.893333-56.149333-23.893334H111.672889l-55.466667-62.577778z m911.587556-789.048888v225.450666c0 31.459556-4.892444 56.092444 26.510222 56.092445 31.345778 0 29.013333-24.632889 29.013333-56.092445v-284.444444a50.858667 50.858667 0 0 0-17.92-39.765334 56.490667 56.490667 0 0 0-40.448-17.066666h-282.396444c-31.345778 0-56.149333-2.104889-56.149333 29.297778 0 31.459556 24.803556 23.893333 56.149333 23.893333h229.774222l55.466667 62.577778zM796.444444 668.444444v-56.888888h-56.888888V668.444444h56.888888z m113.777778 113.777778v-56.888889h-56.888889V782.222222h56.888889z m-170.666666-170.666666v-56.888889h-56.888889V611.555556h56.888889z m113.777777 113.777777v-56.888889h-56.888889V725.333333h56.888889z m-227.555555-170.666666h56.888889v-56.888889h-56.888889V554.666667z m-398.222222-455.111111v-56.888889H170.666667v56.888889h56.888889z m113.777777 113.777777v-56.888889H284.444444v56.888889h56.888889z m56.888889 56.888889v-56.888889H341.333333v56.888889h56.888889z m-227.555555-227.555555v-56.888889H113.777778v56.888889h56.888889z m113.777777 113.777777v-56.888888H227.555556v56.888888h56.888888z"  horiz-adv-x="1024" />

    
    <glyph glyph-name="shanchu" unicode="&#58944;" d="M853.333333 611.555556v-625.834667c0-31.402667-25.998222-56.832-57.116444-56.832H226.531556a56.604444 56.604444 0 0 0-56.832 56.832L173.169778 611.555556H56.888889V668.444444h910.222222v-56.888888h-113.777778zM226.588444-14.222222h569.628445L796.444444 611.555556H230.058667l-3.413334-625.777778zM284.444444 782.222222h455.111112v-56.888889H284.444444V782.222222z m284.444445-284.444444h56.888889v-398.222222h-56.888889V497.777778zM398.222222 497.777778h56.888889v-398.222222H398.222222V497.777778z"  horiz-adv-x="1024" />

    
    <glyph glyph-name="shitu_gaikuang" unicode="&#58945;" d="M0 802.909091h139.636364v-139.636364H0V802.909091z m279.272727 0h698.181818v-139.636364H279.272727V802.909091zM0 477.090909h139.636364v-139.636364H0V477.090909z m279.272727 0h698.181818v-139.636364H279.272727V477.090909z m-279.272727-325.818182h139.636364v-139.636363H0v139.636363z m279.272727 0h698.181818v-139.636363H279.272727v139.636363z"  horiz-adv-x="1024" />

    
    <glyph glyph-name="tianjiatongji" unicode="&#58946;" d="M512 440.888889V611.555556h56.888889v-170.666667h170.666667v-56.888889h-170.666667v-170.666667H512V384H341.333333V440.888889h170.666667z m-341.333333-455.111111h597.333333a28.444444 28.444444 0 1 0 0-56.888889H113.777778a56.888889 56.888889 0 0 0-56.888889 56.888889V640a28.444444 28.444444 0 0 0 56.888889 0V42.66666699999996a56.888889 56.888889 0 0 1 56.888889-56.888889zM227.555556 782.222222h625.777777a56.888889 56.888889 0 0 0 56.888889-56.888889v-625.777777a56.888889 56.888889 0 0 0-56.888889-56.888889H227.555556a56.888889 56.888889 0 0 0-56.888889 56.888889V725.333333a56.888889 56.888889 0 0 0 56.888889 56.888889z m0-56.888889v-625.777777h625.777777V725.333333H227.555556z"  horiz-adv-x="1024" />

    
    <glyph glyph-name="shitu_liebiao" unicode="&#58947;" d="M46.545455 802.909091h930.90909v-139.636364H46.545455V802.909091z m0-325.818182h930.90909v-139.636364H46.545455V477.090909z m0-325.818182h930.90909v-139.636363H46.545455v139.636363z"  horiz-adv-x="1024" />

    
    <glyph glyph-name="toubudaohang_guanbi" unicode="&#58948;" d="M219.428571 164.571429h73.142858v-73.142858H219.428571v73.142858z m-73.142857-73.142858h73.142857v-73.142857H146.285714v73.142857z m146.285715 146.285715h73.142857v-73.142857H292.571429V237.714286z m73.142857 73.142857h73.142857v-73.142857H365.714286V310.857143z m73.142857 73.142857h73.142857v-73.142857H438.857143V384z m73.142857 73.142857h73.142857v-73.142857H512V457.142857z m146.285714 146.285714h73.142857v-73.142857H658.285714V603.428571z m73.142857 73.142858h73.142858v-73.142858h-73.142858V676.571429zM585.142857 530.285714h73.142857v-73.142857H585.142857V530.285714z m219.428572 219.428572h73.142857v-73.142857h-73.142857V749.714286z m0-585.142857v-73.142858h-73.142858v73.142858h73.142858z m-73.142858 73.142857v-73.142857H658.285714V237.714286h73.142857zM658.285714 310.857143v-73.142857H585.142857V310.857143h73.142857zM585.142857 384v-73.142857H512V384h73.142857zM512 457.142857v-73.142857H438.857143V457.142857h73.142857zM365.714286 603.428571v-73.142857H292.571429V603.428571h73.142857zM292.571429 676.571429v-73.142858H219.428571V676.571429h73.142858z m146.285714-146.285715v-73.142857H365.714286V530.285714h73.142857zM219.428571 749.714286v-73.142857H146.285714V749.714286h73.142857z m658.285715-658.285715v-73.142857h-73.142857v73.142857h73.142857z"  horiz-adv-x="1024" />

    
    <glyph glyph-name="zidingyi" unicode="&#58950;" d="M170.666667 42.780444c0 0.113778 189.610667 0.056889 568.775111-0.113777-0.113778 0-0.056889 189.610667 0.113778 568.775111 0-0.113778-189.610667-0.056889-568.775112 0.113778 0.113778 0 0.056889-189.610667-0.113777-568.775112zM113.777778 611.441778C113.777778 642.844444 139.719111 668.444444 170.780444 668.444444h568.661334C770.844444 668.444444 796.444444 642.503111 796.444444 611.441778v-568.661334C796.444444 11.377778 770.503111-14.222222 739.441778-14.222222H170.780444A57.287111 57.287111 0 0 0 113.777778 42.780444V611.441778z m113.777778 114.346666C227.896889 757.020444 253.724444 782.222222 284.558222 782.222222h568.661334C884.622222 782.222222 910.222222 756.280889 910.222222 725.219556v-568.661334c0-30.947556-25.088-56.206222-55.580444-57.002666V725.902222H227.555556z"  horiz-adv-x="1024" />

    
    <glyph glyph-name="xiala" unicode="&#58951;" d="M540.330667 258.048L303.559111 494.819556a36.181333 36.181333 0 0 1-50.631111 0 35.726222 35.726222 0 0 1-0.056889-50.631112l258.673778-258.730666a35.896889 35.896889 0 0 1 59.164444 13.312l254.179556 254.293333a31.914667 31.914667 0 0 1-0.056889 44.657778 31.971556 31.971556 0 0 1-44.714667 0.113778l-239.786666-239.786667z"  horiz-adv-x="1024" />

    
    <glyph glyph-name="riqixuanze" unicode="&#58952;" d="M625.777778 782.222222h56.888889v-170.666666h-56.888889V782.222222zM284.444444 782.222222h56.888889v-170.666666H284.444444V782.222222zM113.777778 497.777778h739.441778c0 113.777778-0.113778 170.666667-0.227556 170.666666H741.262222V725.333333h111.786667C884.622222 725.333333 910.222222 699.904 910.222222 668.501333V99.555556A56.718222 56.718222 0 0 0 853.333333 42.666667H113.777778a56.888889 56.888889 0 0 0-56.888889 56.832V668.444444C56.888889 699.904 82.318222 725.333333 113.550222 725.333333h110.705778v-56.888889H113.777778v-170.666666z m739.498666-56.888889H113.777778v-341.333333h739.555555l-0.056889 341.333333zM398.222222 725.333333h170.666667v-56.888889H398.222222V725.333333z"  horiz-adv-x="1024" />

    
    <glyph glyph-name="shitu_qiapian" unicode="&#58954;" d="M93.090909 802.909091h325.818182v-325.818182H93.090909V802.909091z m0-512h325.818182v-325.818182H93.090909v325.818182zM605.090909 802.909091h325.818182v-325.818182h-325.818182V802.909091z m0-512h325.818182v-325.818182h-325.818182v325.818182z"  horiz-adv-x="1024" />

    
    <glyph glyph-name="guanbiquanping" unicode="&#58956;" d="M681.273585 154.7102V-70.627797c0-31.443834 4.889999-56.064412-26.496973-56.064412-31.330113 0-28.998834 24.620579-28.998834 56.064412v284.302293c0 16.830696 6.936976 30.420345 17.911044 39.802321a56.462435 56.462435 0 0 0 40.427786 17.058138h282.255317c31.330113 0 56.121273 2.046977 56.121273-29.339997 0-31.443834-24.79116-23.881393-56.121273-23.881393h-229.716253l-55.382087-62.546504z m-339.172635-1.592092l-55.438948 62.660225H57.00261c-31.330113 0-56.121273-7.619301-56.121273 23.824532 0 31.386973 24.79116 29.283136 56.121273 29.283136h282.255317c15.864068 0 30.136043-6.538953 40.370925-17.058137a50.83325 50.83325 0 0 0 17.967905-39.802321v-284.302294c0-31.386973 2.331279-56.007552-28.998834-56.007551-31.386973 0-26.496974 24.620579-26.496973 56.064412v225.337998z m339.172635 461.422622l55.438948-62.603365h229.659392c31.330113 0 56.121273 7.562441 56.121273-23.881393 0-31.330113-24.79116-29.283136-56.121273-29.283136h-282.255317a56.462435 56.462435 0 0 0-40.427786 17.058137 50.83325 50.83325 0 0 0-17.911044 39.802321v284.302294C625.720917 871.322561 623.446499 896 654.719751 896c31.386973 0 26.496974-24.677439 26.496974-56.064412V614.54073z m-339.798101 0V839.935588C341.418624 871.322561 336.585485 896 367.972458 896c31.273252 0 28.998834-24.677439 28.998834-56.064412v-284.302294a50.83325 50.83325 0 0 0-17.911044-39.802321 56.462435 56.462435 0 0 0-40.484647-17.058137H56.377145C24.990172 498.772836 0.255872 496.725859 0.255872 528.112832s24.7343 23.824532 56.121273 23.824533h229.659392L341.418624 614.54073z"  horiz-adv-x="1024" />

    
    <glyph glyph-name="tianjiaziji" unicode="&#58958;" d="M682.666667 213.33333300000004v113.777778h56.888889v-113.777778h113.777777v-56.888889h-113.777777v-113.777777h-56.888889v113.777777h-113.777778v56.888889h113.777778z m171.52 283.420445V755.086222c0 21.105778-12.174222 27.363556-32.995556 27.363556L153.031111 781.2551109999999c-20.707556 0-39.822222-18.488889-39.822222-39.651555V84.19555600000001c0-21.162667 20.309333-42.666667 41.016889-42.666667h242.346666l0.967112-56.775111H148.536889c-50.517333 0-91.648 42.951111-91.648 94.492444V745.8133330000001C56.888889 797.297778 98.019556 839.111111 148.48 839.111111h677.262222c50.574222 0 85.219556-32.540444 85.219556-84.081778v-258.275555h-56.775111zM512 440.888889h398.222222a56.888889 56.888889 0 0 0 56.888889-56.888889v-398.222222a56.888889 56.888889 0 0 0-56.888889-56.888889H512a56.888889 56.888889 0 0 0-56.888889 56.888889V384a56.888889 56.888889 0 0 0 56.888889 56.888889z m0-56.888889v-398.222222h398.222222V384H512z"  horiz-adv-x="1024" />

    
    <glyph glyph-name="shitu_tubiao" unicode="&#58960;" d="M465.454545 802.304v-468.061091h464.663273C916.48 102.353455 724.061091-81.454545 488.727273-81.454545A442.181818 442.181818 0 0 0 46.545455 360.727273c0 236.404364 185.530182 429.474909 418.90909 441.576727zM558.545455 849.454545a443.810909 443.810909 0 0 0 418.39709-421.422545H558.545455V849.454545z"  horiz-adv-x="1024" />

    
    <glyph glyph-name="yulan" unicode="&#58961;" d="M86.300444 340.024889a945.664 945.664 0 0 1 101.603556-99.84C292.864 151.779556 403.740444 99.555556 514.161778 99.555556c110.421333 0 221.297778 52.224 326.314666 140.629333a945.664 945.664 0 0 1 112.867556 112.981333 781.937778 781.937778 0 0 1-103.253333 114.232889C750.023111 558.023111 637.326222 611.555556 514.161778 611.555556c-123.107556 0-235.861333-53.532444-335.872-144.156445a781.937778 781.937778 0 0 1-103.310222-114.232889c3.470222-4.096 7.224889-8.476444 11.320888-13.084444zM514.161778 668.444444C832 668.444444 1024 350.72 1024 350.72S802.190222 42.666667 514.161778 42.666667 4.323556 350.72 4.323556 350.72 196.380444 668.444444 514.161778 668.444444z m-1.820445-170.666666c-81.92 0-144.668444-64.398222-144.668444-142.222222 0-80.497778 65.536-142.222222 144.668444-142.222223 81.92 0 145.066667 64.398222 145.066667 142.222223S591.473778 497.777778 512.284444 497.777778z m0-56.888889c48.071111 0 88.177778-39.253333 88.177778-85.333333 0-47.217778-38.456889-85.333333-88.177778-85.333334-49.038222 0-87.779556 37.546667-87.779555 85.333334 0 47.274667 38.229333 85.333333 87.779555 85.333333z"  horiz-adv-x="1024" />

    
    <glyph glyph-name="shangla" unicode="&#58962;" d="M540.330667 456.760889l-236.771556-236.771556a36.181333 36.181333 0 0 0-50.631111 0 35.726222 35.726222 0 0 0-0.056889 50.631111l258.673778 258.730667a35.896889 35.896889 0 0 0 59.164444-13.312l254.179556-254.293333c12.003556-11.946667 12.288-32.312889-0.056889-44.657778a31.971556 31.971556 0 0 0-44.714667-0.113778L540.330667 456.817778z"  horiz-adv-x="1024" />

    
    <glyph glyph-name="gongzuotai" unicode="&#58963;" d="M568.888889-71.111111h170.666667c34.133333 31.971556 56.888889 55.182222 56.888888 113.777778v284.444444c2.446222 3.299556 62.407111 0.227556 56.888889 0 27.989333 0 34.702222 3.242667 56.888889 0 4.096 32.711111 6.769778 78.222222 0 113.777778-136.248889 102.286222-275.228444 207.758222-398.222222 341.333333-21.504 5.859556-49.664 5.973333-56.888889 0-137.557333-133.688889-259.982222-245.873778-398.222222-341.333333 7.907556-30.151111 1.706667-42.097778 0-56.888889-1.365333-15.303111 4.835556-32.654222 0-56.888889 21.731556 1.251556 32.256-0.398222 56.888889 0-1.137778 0.568889 44.032 2.332444 56.888889 0-0.398222-105.984 0.170667-206.279111 0-284.444444 0.056889-35.384889 1.422222-48.355556 0-56.888889 21.902222-38.115556 20.764444-56.888889 56.888889-56.888889h170.666666v227.384889A56.775111 56.775111 0 0 0 455.054222 213.333333h57.002667c31.402667 0 56.832-24.917333 56.832-57.059555V-71.111111z"  horiz-adv-x="1024" />

    
    <glyph glyph-name="unfolded-s" unicode="&#58882;" d="M877.714286 128c0-21.942857-14.628571-36.571429-36.571429-36.571429h-585.142857c-21.942857 0-36.571429 14.628571-36.571429 36.571429v585.142857c0 21.942857 14.628571 36.571429 36.571429 36.571429h585.142857c21.942857 0 36.571429-14.628571 36.571429-36.571429v-585.142857zM841.142857 822.857143h-585.142857C197.485714 822.857143 146.285714 771.657143 146.285714 713.142857v-585.142857c0-58.514286 51.2-109.714286 109.714286-109.714286h585.142857c58.514286 0 109.714286 51.2 109.714286 109.714286v585.142857c0 58.514286-51.2 109.714286-109.714286 109.714286z m-146.285714-365.714286H585.142857V566.857143c0 21.942857-14.628571 36.571429-36.571428 36.571428s-36.571429-14.628571-36.571429-36.571428V457.142857H402.285714c-21.942857 0-36.571429-14.628571-36.571428-36.571428s14.628571-36.571429 36.571428-36.571429H512v-109.714286c0-21.942857 14.628571-36.571429 36.571429-36.571428s36.571429 14.628571 36.571428 36.571428V384h109.714286c21.942857 0 36.571429 14.628571 36.571428 36.571429S716.8 457.142857 694.857143 457.142857z"  horiz-adv-x="1024" />

    
    <glyph glyph-name="liebiaozhuangtailan" unicode="&#58965;" d="M512 384m-512 0a512 512 0 1 1 1024 0 512 512 0 1 1-1024 0Z"  horiz-adv-x="1024" />

    
    <glyph glyph-name="jichengguanli" unicode="&#58966;" d="M51.2 742.4h870.4a51.2 51.2 0 0 0 51.2-51.2v-102.4a51.2 51.2 0 0 0-51.2-51.2H51.2a51.2 51.2 0 0 0-51.2 51.2V691.2a51.2 51.2 0 0 0 51.2 51.2z m691.2-51.2a25.6 25.6 0 0 1-25.6-25.6v-51.2a25.6 25.6 0 0 1 25.6-25.6h102.4a25.6 25.6 0 0 1 25.6 25.6v51.2a25.6 25.6 0 0 1-25.6 25.6h-102.4zM51.2 486.4h870.4a51.2 51.2 0 0 0 51.2-51.2v-102.4a51.2 51.2 0 0 0-51.2-51.2H51.2a51.2 51.2 0 0 0-51.2 51.2V435.2a51.2 51.2 0 0 0 51.2 51.2z m691.2-51.2a25.6 25.6 0 0 1-25.6-25.6v-51.2a25.6 25.6 0 0 1 25.6-25.6h102.4a25.6 25.6 0 0 1 25.6 25.6v51.2a25.6 25.6 0 0 1-25.6 25.6h-102.4zM51.2 230.4h870.4a51.2 51.2 0 0 0 51.2-51.2v-102.4a51.2 51.2 0 0 0-51.2-51.2H51.2a51.2 51.2 0 0 0-51.2 51.2v102.4a51.2 51.2 0 0 0 51.2 51.2z m691.2-51.2a25.6 25.6 0 0 1-25.6-25.6v-51.2a25.6 25.6 0 0 1 25.6-25.6h102.4a25.6 25.6 0 0 1 25.6 25.6v51.2a25.6 25.6 0 0 1-25.6 25.6h-102.4z"  horiz-adv-x="1024" />

    
    <glyph glyph-name="baobiaoguanli" unicode="&#58967;" d="M153.6 742.4h665.6a51.2 51.2 0 0 0 51.2-51.2v-716.8a51.2 51.2 0 0 0-51.2-51.2H153.6a51.2 51.2 0 0 0-51.2 51.2V691.2a51.2 51.2 0 0 0 51.2 51.2z m102.4-460.8v-204.8h51.2v204.8H256z m204.8-51.2v-153.6h51.2v153.6H460.8z m204.8 153.6v-307.2h51.2v307.2h-51.2z m-178.3296-9.216l250.2656 148.48-26.112 44.032-215.6544-128-113.408 116.0192-155.904-103.936 28.3648-42.5984 120.576 80.384 111.872-114.432zM921.6 25.6V742.4a51.2 51.2 0 0 1-51.2 51.2H204.8V844.8h665.6a102.4 102.4 0 0 0 102.4-102.4v-716.8h-51.2z"  horiz-adv-x="1024" />

    
    <glyph glyph-name="fenxiguanli" unicode="&#58968;" d="M512 844.8v-460.8h460.8a460.8 460.8 0 1 0-460.8 460.8z m51.2 51.2a488.192 488.192 0 0 0 460.2368-463.5648H563.2V896z"  horiz-adv-x="1024" />

    
    <glyph glyph-name="hebingzhongxin" unicode="&#58969;" d="M484.7104 367.8208l308.4288-191.5904 26.0608 52.5312-307.2 190.8224V742.4H460.8v-322.1504l-307.2-193.792 27.5456-50.176 303.616 191.488z m376.5248-297.2672l-319.488-183.296c-35.84-20.5312-80.0768-20.3264-115.712 0.5632L108.544 74.5984A116.5312 116.5312 0 0 0 51.2 175.6672l1.9456 370.1248a116.9408 116.9408 0 0 0 58.368 100.4544l319.5904 183.296a115.456 115.456 0 0 0 115.6608-0.5632l317.5424-186.7776A116.5312 116.5312 0 0 0 921.6 541.1328l-1.9456-370.1248a116.7872 116.7872 0 0 0-58.368-100.4544z"  horiz-adv-x="1024" />

    
    <glyph glyph-name="renwuguanli" unicode="&#58970;" d="M481.792-25.600000000000023H102.4c-28.2624 0-51.2 22.784-51.2 51.2V742.4c0 28.2624 22.784 51.2 51.2 51.2h153.6v-102.4h409.6V793.6h153.6c28.2624 0 51.2-22.784 51.2-51.2v-204.8h-239.7184v-51.2c0-25.856-22.0672-47.36-50.0224-47.36-9.1136 0-17.7152 2.2528-25.2928 6.5024l-43.7248 24.4224-121.4976-206.848 45.7216-25.4464c15.3088-8.5504 24.6784-24.0128 24.6784-40.8576 0-16.896-9.3696-32.3072-24.6784-40.8576l-45.7216-25.5488L481.792-25.600000000000023zM307.2 844.8h307.2v-102.4H307.2V844.8z m368.2816-358.4h133.8368c0-52.8384 44.032-95.744 98.304-95.744 17.7664 0 34.4064 4.608 48.7936 12.6464L1024 288.256a95.232 95.232 0 0 1-49.5104-83.0976c0-35.5328 19.968-66.56 49.5104-83.0464l-67.584-115.0976a99.84 99.84 0 0 1-48.7936 12.6464c-54.272 0-98.304-42.8544-98.304-95.744h-133.8368c0 52.8896-44.032 95.744-98.304 95.744-17.7664 0-34.4064-4.608-48.7936-12.6464L460.8 122.11199999999997a95.232 95.232 0 0 1 49.4592 83.0464c0 35.584-19.9168 66.56-49.4592 83.0976l67.584 115.0464c14.336-8.0384 31.0272-12.5952 48.7936-12.5952 54.272 0 98.304 42.8544 98.304 95.6928zM665.6 204.74879999999996a76.8512 76.8512 0 0 1 153.6 0 76.8512 76.8512 0 0 1-153.6 0z"  horiz-adv-x="1024" />

    
    <glyph glyph-name="hebingtixi" unicode="&#58971;" d="M204.8 358.4V640h512V742.4H102.4v-614.4h102.4v230.4zM768 588.8v-512H256v-102.4h614.4V588.8h-102.4z m0 51.2h102.4a51.2 51.2 0 0 0 51.2-51.2v-614.4a51.2 51.2 0 0 0-51.2-51.2H256a51.2 51.2 0 0 0-51.2 51.2v102.4H102.4a51.2 51.2 0 0 0-51.2 51.2V742.4a51.2 51.2 0 0 0 51.2 51.2h614.4a51.2 51.2 0 0 0 51.2-51.2v-102.4z"  horiz-adv-x="1024" />

    
    <glyph glyph-name="pilouguanli" unicode="&#58972;" d="M891.113362 40.140242l132.886638-132.836775-35.303467-35.303467-132.836775 132.886638a249.31827 249.31827 0 1 0 35.253604 35.253604z m3.68991 383.202181a299.181924 299.181924 0 0 1-422.295286-421.946241H149.441371A49.614336 49.614336 0 0 0 99.727308 51.110245V746.70822c0 27.42501 22.089599 49.714063 49.714063 49.714063h695.597975c27.474873 0 49.763927-22.089599 49.763926-49.714063v-323.365797zM249.31827 646.68173v-49.863654h498.636541V646.68173H249.31827z"  horiz-adv-x="1051" />

    
    <glyph glyph-name="waihuiguanli" unicode="&#58973;" d="M548.199424-111.1552a130.304 130.304 0 0 0-129.2288 0.6656L64.001024 95.9488A128.512 128.512 0 0 0 0.001024 207.616l2.2016 357.888a129.024 129.024 0 0 0 65.2288 111.0528L424.602624 879.104a130.304 130.304 0 0 0 129.2288-0.6656l354.9696-206.4384A128.512 128.512 0 0 0 972.801024 560.384l-2.2016-357.888a128.8192 128.8192 0 0 0-65.2288-111.0528l-357.1712-202.5984zM512.001024 435.2V588.8h123.392c26.5216 20.1216 26.5216 27.648 0 51.2H512.001024V691.2c0 37.2224-19.6608 49.8176-16.3328 49.8176-36.608 0-33.7408-11.776-34.8672-49.8176v-51.2c-102.4 2.816-153.6-41.8816-153.6-128S367.361024 405.8624 460.801024 384v-153.6H358.401024c-32.0512 0-51.2-1.3824-51.2-21.9648 0-20.5824 16.896-29.2352 51.2-29.2352h102.4v-51.2c1.1264-38.0416 14.592-51.2 51.2-51.2-3.3792 0 10.1376 13.1584 0 51.2v51.2c123.392 0 152.32 37.12 153.6 128 1.28 90.88-66.0992 128-153.6 128z m0-204.8v153.6c61.5936 0 103.168-8.8576 103.168-76.8 0-16.7424 8.96-76.8-103.168-76.8zM358.401024 512C358.401024 528.7424 394.343424 588.8 460.801024 588.8v-153.6c-66.4576 0-102.4 8.8576-102.4 76.8z"  horiz-adv-x="1024" />

    
    <glyph glyph-name="jichushezhi" unicode="&#58974;" d="M358.4 383.8976a153.7024 153.7024 0 0 0 153.6 153.4976c84.6848 0 153.6-68.8128 153.6-153.4976A153.7536 153.7536 0 0 0 512 230.4c-84.6848 0-153.6 68.864-153.6 153.4976zM401.2544 844.8c0-86.1696-71.7312-156.0576-160.256-156.0576a162.7136 162.7136 0 0 0-79.616 20.5824L51.2 521.728c48.2304-26.9312 80.6912-77.5168 80.6912-135.4752S99.4304 277.7088 51.2 250.7776l110.1824-187.5968a162.7136 162.7136 0 0 0 79.616 20.5824c88.5248 0 160.256-69.8368 160.256-156.0576h218.2144c0 86.2208 71.7312 156.0576 160.256 156.0576a162.816 162.816 0 0 0 79.616-20.5824l110.1824 187.5968c-48.2304 26.9312-80.6912 77.5168-80.6912 135.4752s32.4608 108.544 80.6912 135.4752l-110.1824 187.5968a162.816 162.816 0 0 0-79.616-20.5824c-88.5248 0-160.256 69.888-160.256 156.0576H401.2544z"  horiz-adv-x="1024" />

    
    <glyph glyph-name="tongjibaobiao" unicode="&#58975;" d="M153.6 742.4h665.6a51.2 51.2 0 0 0 51.2-51.2v-716.8a51.2 51.2 0 0 0-51.2-51.2H153.6a51.2 51.2 0 0 0-51.2 51.2V691.2a51.2 51.2 0 0 0 51.2 51.2z m102.4-460.8v-204.8h51.2v204.8H256z m204.8-51.2v-153.6h51.2v153.6H460.8z m204.8 153.6v-307.2h51.2v307.2h-51.2z m-178.3296-9.216l250.2656 148.48-26.112 44.032-215.6544-128-113.408 116.0192-155.904-103.936 28.3648-42.5984 120.576 80.384 111.872-114.432zM921.6 25.6V742.4a51.2 51.2 0 0 1-51.2 51.2H204.8V844.8h665.6a102.4 102.4 0 0 0 102.4-102.4v-716.8h-51.2z"  horiz-adv-x="1024" />

    
    <glyph glyph-name="chushihua" unicode="&#58976;" d="M0.016639 358.417471c0-237.406684 148.577571-441.278458 357.620378-486.384192 24.31921 0 17.919418 22.527268 25.85516 54.065443-16.281071 12.953179-11.417229 27.903093-37.835571 32.408547C204.809984-17.378315 56.334809 155.672061 67.39365 358.417471a562.669713 562.669713 0 0 0 34.814868 162.145131c28.363878-7.98694 46.334494-51.812716 51.09594-54.014245 16.127476-44.952139 23.448838-51.044741 51.044741-54.065443-11.110039 3.020702-3.839875 12.901981 0 54.065443C258.721832 675.847155 389.328787 766.980193 408.732956 790.736221c-5.887809 42.494619-21.247309 54.884616-51.095939 54.014245C146.290286 795.139278 0.016639 594.134611 0.016639 358.417471z m972.768385 0c0-235.768338-146.273646-436.721807-357.620377-486.384192-29.84863-0.767975-45.208131 11.622022-51.095939 54.065443 19.352971 23.70483 150.011125 114.837868 204.383757 324.239062 3.839875 41.163462 11.110039 51.044741 0 54.065443 27.544705-3.020702 34.917265-9.113304 51.044741-54.065443 4.761445-2.252727 22.732061-46.078502 51.09594-54.014245 19.301773 51.095939 39.934702 108.028489 37.272388 162.093932-9.983676 203.052601-131.579724 386.189049-292.700887 396.889502-23.500036 28.978258-18.431401 22.424871-34.661273 35.429248 7.833345 31.486977 10.290866 54.065443 34.661273 54.065443C824.207453 799.69593 972.785024 595.824156 972.785024 358.417471zM486.400832 179.223295a179.194176 179.194176 0 1 0 0 358.388353 179.194176 179.194176 0 0 0 0-358.388353z"  horiz-adv-x="1024" />

    
    <glyph glyph-name="yinhangfukuan" unicode="&#58977;" d="M358.4-65.4336l262.7584 291.9936A148.6848 148.6848 0 0 1 614.4 432.5376a148.8896 148.8896 0 0 1-206.2336 1.4848L358.4 386.9184V793.6a51.2 51.2 0 0 0 51.2 51.2h512a51.2 51.2 0 0 0 51.2-51.2v-870.4a51.2 51.2 0 0 0-51.2-51.2H409.6a51.2 51.2 0 0 0-51.2 51.2v11.3664zM307.2 691.2v-307.2l-102.4-102.4 51.2-51.2 192.3584 165.7856a90.9824 90.9824 0 0 0 123.392-4.2496c33.28-32.9728 34.4576-86.4256 2.6112-120.832L204.8-128H102.4a102.4 102.4 0 0 0-102.4 102.4v320.512a102.4 102.4 0 0 0 24.6272 66.6624L307.2 691.2z m512 153.6v-972.8h51.2V844.8h-51.2z"  horiz-adv-x="1024" />

    
    <glyph glyph-name="qimochuli" unicode="&#58978;" d="M819.201024 742.4h102.656A51.2 51.2 0 0 0 972.801024 690.8416v-664.8832c0-28.4672-23.04-51.5584-50.944-51.5584H50.945024A51.2 51.2 0 0 0 0.001024 25.9584V690.8416C0.001024 719.3088 23.041024 742.4 50.945024 742.4H153.601024v-153.6h153.6V742.4h358.4v-153.6h153.6V742.4zM204.801024 793.6h51.2v-153.6H204.801024V793.6z m512 0h51.2v-153.6h-51.2V793.6z m-51.2-367.2576l-211.7632-215.6032-9.1136-9.3184-95.232 107.8784a29.7472 29.7472 0 0 1-51.0976-21.3504c0-8.192 3.072-15.872 8.8064-21.7088l116.4288-129.3824a29.4912 29.4912 0 0 1 42.2912 0l242.0736 246.3232a30.72 30.72 0 0 1 0 43.1104 29.5936 29.5936 0 0 1-42.3936 0z"  horiz-adv-x="1024" />

    
    <glyph glyph-name="richangchuli" unicode="&#58979;" d="M921.6 25.6V742.4a51.2 51.2 0 0 1-51.2 51.2H204.8V844.8h665.6a102.4 102.4 0 0 0 102.4-102.4v-716.8h-51.2zM102.4 691.1488c0 28.3136 22.9888 51.2 51.5584 51.2h664.8832C847.3088 742.4 870.4 719.6672 870.4 691.2v-716.6976c0-28.3136-22.9888-51.2512-51.5584-51.2512H153.9584A51.3024 51.3024 0 0 0 102.4-25.6V691.2z m563.2-213.6064l-211.7632-215.6544-9.1136-9.2672-95.232 107.8784a29.7472 29.7472 0 0 1-51.0976-21.4016c0-8.192 3.072-15.872 8.8064-21.6576l116.4288-129.3824a29.4912 29.4912 0 0 1 42.2912 0l242.0736 246.3232a30.72 30.72 0 0 1 0 43.1104 29.5936 29.5936 0 0 1-42.3936 0z"  horiz-adv-x="1024" />

    
    <glyph glyph-name="yinqishezhi" unicode="&#58980;" d="M493.824-25.6H51.2v54.784h50.7392v46.4384H154.624V537.2416H50.7392V628.0704L478.6176 793.6h66.2528l428.3392-165.5296L972.8 537.6h-102.4v-51.2h-319.488a51.2 51.2 0 0 1-44.3904-25.6L358.4 203.9296 493.824-25.6z m97.6896 460.8h245.504a51.2 51.2 0 0 0 44.032-25.088l122.2656-206.3872a51.2 51.2 0 0 0-0.1536-52.4288l-122.0096-203.264a51.2 51.2 0 0 0-43.9296-24.832h-246.0672a51.2 51.2 0 0 0-43.8272 24.7296l-121.9584 202.1888a51.2 51.2 0 0 0-0.256 52.4288l122.3168 207.4624A51.2 51.2 0 0 0 591.5136 435.2zM716.8 76.8a102.4 102.4 0 1 1 0 204.8 102.4 102.4 0 0 1 0-204.8z"  horiz-adv-x="1024" />

    
    <glyph glyph-name="yinhangcunkuan" unicode="&#58981;" d="M51.2 742.4h870.4a51.2 51.2 0 0 0 51.2-51.2v-153.6H0V691.2a51.2 51.2 0 0 0 51.2 51.2zM0 486.4h972.8v-409.6a51.2 51.2 0 0 0-51.2-51.2H51.2a51.2 51.2 0 0 0-51.2 51.2V486.4z m563.2-307.2v-51.2h307.2v51.2h-307.2z"  horiz-adv-x="1024" />

    
    <glyph glyph-name="xianjinguanli" unicode="&#58982;" d="M486.4-128a486.4 486.4 0 1 0 0 972.8 486.4 486.4 0 0 0 0-972.8z m14.592 563.2l10.3936 7.8336L665.6 551.2192 615.5776 588.8 461.4144 475.136h49.9712L357.2224 588.8 307.2 551.2192l154.2144-108.1856 10.3936-7.8336H307.2v-51.2h153.6v-102.4H307.2v-51.2h153.6v-153.6h48.4864v153.6H665.6v51.2H509.2864v102.4H665.6V435.2H500.992z"  horiz-adv-x="1024" />

    
    <glyph glyph-name="zuzhiguanli" unicode="&#58984;" d="M563.2 384V486.4H460.8v-102.4H102.4v-204.8h51.2v153.6h716.8v-153.6h51.2v204.8h-358.4zM358.4 896h307.2a51.2 51.2 0 0 0 51.2-51.2v-307.2a51.2 51.2 0 0 0-51.2-51.2H358.4a51.2 51.2 0 0 0-51.2 51.2V844.8a51.2 51.2 0 0 0 51.2 51.2zM51.2 179.2h204.8a51.2 51.2 0 0 0 51.2-51.2v-204.8a51.2 51.2 0 0 0-51.2-51.2H51.2a51.2 51.2 0 0 0-51.2 51.2v204.8a51.2 51.2 0 0 0 51.2 51.2z m358.4 0h204.8a51.2 51.2 0 0 0 51.2-51.2v-204.8a51.2 51.2 0 0 0-51.2-51.2H409.6a51.2 51.2 0 0 0-51.2 51.2v204.8a51.2 51.2 0 0 0 51.2 51.2z m358.4 0h204.8a51.2 51.2 0 0 0 51.2-51.2v-204.8a51.2 51.2 0 0 0-51.2-51.2h-204.8a51.2 51.2 0 0 0-51.2 51.2v204.8a51.2 51.2 0 0 0 51.2 51.2z"  horiz-adv-x="1024" />

    
    <glyph glyph-name="tiaodufuwu" unicode="&#58985;" d="M51.2 793.6h870.4a51.2 51.2 0 0 0 51.2-51.2v-716.8a51.2 51.2 0 0 0-51.2-51.2H51.2a51.2 51.2 0 0 0-51.2 51.2V742.4a51.2 51.2 0 0 0 51.2 51.2z m522.3936-563.1488l117.6576-153.088 128.9728 153.088h-103.7312V469.6064c0 65.1264-62.0544 119.296-129.792 119.296-67.7376 0-124.8256-51.456-124.8256-119.296l0.3072-214.7328c0-43.008-25.6-76.0832-69.632-76.0832-44.032 0-85.9648 33.0752-85.9648 76.0832V486.144h101.1712L282.2144 641.6384 156.8256 486.144h96.9216v-231.2704c0-63.6928 46.592-126.5664 138.752-126.5664 92.2624 0 118.8864 50.4832 118.8864 126.5664l-0.3072 214.7328c0 34.6112 36.7616 67.84 75.6224 67.84 38.8096 0 79.0016-29.184 79.0016-67.84v-239.104h-92.16z"  horiz-adv-x="1024" />

    
    <glyph glyph-name="renyuanguanli" unicode="&#58986;" d="M391.376901 256.550125c-2.35512-2.559913-0.921569-5.529412 5.427016-8.8061v-70.346409s-148.218961-50.071898-218.104585-72.906321C108.813708 81.656872 51.215667-8.196073 51.215667-128h921.568666c0 119.803927-57.598042 209.656872-124.41177 232.491295-56.830068 15.973857-221.17648 72.906321-221.17648 72.906321V247.795223c9.164488 4.761438 8.140523 8.754902 0.102397 12.031591 54.526146 29.69499 48.945536 84.886714 84.067542 119.803927 35.838781 35.736385 87.446627 56.010896 95.228762 129.019613 7.782135 73.059916-36.709152 82.326801-36.709152 82.326801V730.850799C752.734215 850.501131 551.013074 911.017473 455.272329 892.790893 360.24836 881.783267 249.250533 815.583918 240.649226 715.132933v-124.206976c-18.328977 0-42.136167-9.318083-34.302834-82.326801 7.782135-73.059916 57.751636-93.283228 95.228762-129.019614 37.477126-35.685187 29.234206-92.668849 87.805015-121.74946 0 0 0.665577-0.511983 1.996732-1.279957z"  horiz-adv-x="1024" />

    
    <glyph glyph-name="danjuleixing" unicode="&#58983;" d="M153.6 844.8h665.6a51.2 51.2 0 0 0 51.2-51.2v-819.2a51.2 51.2 0 0 0-51.2-51.2H153.6a51.2 51.2 0 0 0-51.2 51.2V793.6a51.2 51.2 0 0 0 51.2 51.2z m102.4-460.8v-51.2h460.8v51.2H256z m0-153.6v-51.2h460.8v51.2H256z m256 614.4v-307.2l128.9216 102.4L768 537.6V844.8h-256z"  horiz-adv-x="1024" />

    
    <glyph glyph-name="houfan" unicode="&#58987;" d="M568.888889 497.777778v-56.888889h56.888889V497.777778h-56.888889zM455.111111 611.555556v-56.888889h56.888889V611.555556H455.111111zM398.222222 668.444444v-56.888888h56.888889V668.444444H398.222222z m227.555556-227.555555v-56.888889h56.888889V440.888889h-56.888889zM512 554.666667v-56.888889h56.888889V554.666667H512z m0-341.333334h56.888889v56.888889H512v-56.888889z m-113.777778-113.777777h56.888889v56.888888H398.222222v-56.888888z m227.555556 227.555555h56.888889V384h-56.888889v-56.888889z m-56.888889-56.888889h56.888889v56.888889h-56.888889v-56.888889z m-113.777778-113.777778h56.888889v56.888889H455.111111v-56.888889z"  horiz-adv-x="1024" />

    
    <glyph glyph-name="qianfan" unicode="&#58988;" d="M455.111111 497.777778v-56.888889H398.222222V497.777778h56.888889z m113.777778 113.777778v-56.888889H512V611.555556h56.888889z m56.888889 56.888888v-56.888888h-56.888889V668.444444h56.888889zM398.222222 440.888889v-56.888889H341.333333V440.888889h56.888889z m113.777778 113.777778v-56.888889H455.111111V554.666667h56.888889z m0-341.333334H455.111111v56.888889h56.888889v-56.888889z m113.777778-113.777777h-56.888889v56.888888h56.888889v-56.888888z m-227.555556 227.555555H341.333333V384h56.888889v-56.888889z m56.888889-56.888889H398.222222v56.888889h56.888889v-56.888889z m113.777778-113.777778H512v56.888889h56.888889v-56.888889z"  horiz-adv-x="1024" />

    
    <glyph glyph-name="zuihou" unicode="&#58989;" d="M455.111111 497.777778v-56.888889h56.888889V497.777778H455.111111zM341.333333 611.555556v-56.888889h56.888889V611.555556H341.333333zM284.444444 668.444444v-56.888888h56.888889V668.444444H284.444444z m227.555556-227.555555v-56.888889h56.888889V440.888889H512zM398.222222 554.666667v-56.888889h56.888889V554.666667H398.222222z m0-341.333334h56.888889v56.888889H398.222222v-56.888889z m-113.777778-113.777777h56.888889v56.888888H284.444444v-56.888888z m227.555556 227.555555h56.888889V384H512v-56.888889z m-56.888889-56.888889h56.888889v56.888889H455.111111v-56.888889z m-113.777778-113.777778h56.888889v56.888889H341.333333v-56.888889z m341.333334-56.888888h56.888889V668.444444h-56.888889v-568.888888z"  horiz-adv-x="1024" />

    
    <glyph glyph-name="zuiqian" unicode="&#58990;" d="M341.333333 99.555556H284.444444V668.444444h56.888889v-568.888888z m227.555556 398.222222v-56.888889H512V497.777778h56.888889z m113.777778 113.777778v-56.888889h-56.888889V611.555556h56.888889z m56.888889 56.888888v-56.888888h-56.888889V668.444444h56.888889zM512 440.888889v-56.888889H455.111111V440.888889h56.888889z m113.777778 113.777778v-56.888889h-56.888889V554.666667h56.888889z m0-341.333334h-56.888889v56.888889h56.888889v-56.888889z m113.777778-113.777777h-56.888889v56.888888h56.888889v-56.888888z m-227.555556 227.555555H455.111111V384h56.888889v-56.888889z m56.888889-56.888889H512v56.888889h56.888889v-56.888889z m113.777778-113.777778h-56.888889v56.888889h56.888889v-56.888889z"  horiz-adv-x="1024" />

    
    <glyph glyph-name="zhejiuguanli" unicode="&#58991;" d="M358.401024 588.8H0.001024v-51.2h358.4v-153.6l128 50.0224L614.401024 384V537.6h358.4V588.8h-358.4V742.4H358.401024v-153.6zM0.001024 690.8416C0.001024 719.3088 23.041024 742.4 50.945024 742.4h870.912A51.2 51.2 0 0 0 972.801024 690.8416v-664.8832c0-28.4672-23.04-51.5584-50.944-51.5584H50.945024A51.2 51.2 0 0 0 0.001024 25.9584V690.8416zM691.201024 128a25.6 25.6 0 1 1 0-51.2h153.6a25.6 25.6 0 1 1 0 51.2h-153.6z"  horiz-adv-x="1024" />

    
    <glyph glyph-name="zhinenghuiji" unicode="&#58955;" d="M537.6-128a486.4 486.4 0 1 0 0 972.8 486.4 486.4 0 0 0 0-972.8zM256 486.4a102.4 102.4 0 1 1 0-204.8h563.2a102.4 102.4 0 1 1 0 204.8H256z m51.2-153.6a51.2 51.2 0 1 0 0 102.4 51.2 51.2 0 0 0 0-102.4z m153.6 0a51.2 51.2 0 1 0 0 102.4 51.2 51.2 0 0 0 0-102.4z m153.6 0a51.2 51.2 0 1 0 0 102.4 51.2 51.2 0 0 0 0-102.4z m153.6 0a51.2 51.2 0 1 0 0 102.4 51.2 51.2 0 0 0 0-102.4z"  horiz-adv-x="1024" />

    
    <glyph glyph-name="qimotiaodu" unicode="&#58957;" d="M819.200512 793.6h102.656c28.16 0 50.944-22.784 50.944-51.2v-716.8c0-28.2624-23.04-51.2-50.944-51.2H50.944512A50.9952 50.9952 0 0 0 0.000512 25.6V742.4c0 28.2624 23.04 51.2 50.944 51.2H153.600512v-102.4h153.6V793.6h358.4v-102.4h153.6V793.6zM204.800512 844.8h51.2v-102.4H204.800512V844.8z m512 0h51.2v-102.4h-51.2V844.8z m-143.2064-614.3488l117.6576-153.088 128.9728 153.088h-103.7312V469.6064c0 65.1264-62.0544 119.296-129.792 119.296-67.7376 0-124.8256-51.456-124.8256-119.296l0.3072-214.7328c0-43.008-25.6-76.0832-69.632-76.0832-44.032 0-85.9648 33.0752-85.9648 76.0832V486.144h101.1712L282.214912 641.6384 156.826112 486.144h96.9216v-231.2704c0-63.6928 46.592-126.5664 138.752-126.5664 92.2624 0 118.8864 50.4832 118.8864 126.5664l-0.3072 214.7328c0 34.6112 36.7616 67.84 75.6224 67.84 38.8096 0 79.0016-29.184 79.0016-67.84v-239.104h-92.16z"  horiz-adv-x="1024" />

    
    <glyph glyph-name="pingzhengchuli" unicode="&#58959;" d="M102.4 691.2h819.2a51.2 51.2 0 0 0 51.2-51.2v-614.4a51.2 51.2 0 0 0-51.2-51.2H102.4a51.2 51.2 0 0 0-51.2 51.2V640a51.2 51.2 0 0 0 51.2 51.2z m563.2-213.6576l-211.7632-215.6032-9.1136-9.3184-86.4256 88.064a29.7472 29.7472 0 0 1-51.0976-21.4016c0-8.192 3.072-15.872 8.8064-21.7088l107.6224-109.568a29.4912 29.4912 0 0 1 42.2912 0l242.0736 246.3744a30.72 30.72 0 0 1 0 43.1104 29.5936 29.5936 0 0 1-42.3936 0zM153.6 793.6h716.8v-51.2H153.6V793.6z m102.4 102.4h512v-51.2H256V896z"  horiz-adv-x="1024" />

    
    <glyph glyph-name="shuiwubaobiao" unicode="&#58992;" d="M446.72 435.2H307.2c3.6864 0 0-6.9632 0-6.9632V384h153.6v-102.4H307.2v-51.2h153.6v-102.4h51.2v102.4h153.6v51.2h-153.6v102.4h153.6V435.2h-142.2336L512 486.4H460.8v-51.2zM51.2 691.2c0 28.2624 23.296 51.2 51.2 51.2h768c28.2624 0 51.2-22.784 51.2-51.2v-716.8c0-28.2624-21.7088-43.1104-48.384-33.1776l-196.4032 73.216L516.8128-76.8h-29.5936L327.168 14.3872l-227.2768-75.1104c-26.88-8.8576-48.6912 6.656-48.6912 35.1744V691.1488z m358.4-153.6v-51.2h51.2V537.6H409.6zM358.4 588.8v-51.2h51.2V588.8H358.4z m153.6-51.2v-51.2h51.2V537.6h-51.2z m102.4 102.4v-51.2h51.2V640h-51.2z m-51.2-51.2v-51.2h51.2V588.8h-51.2zM307.2 640v-51.2h51.2V640H307.2zM102.4 819.2a25.6 25.6 0 0 0 25.6 25.6h716.8c14.1824 0 25.6-11.8784 25.6-25.6V793.6H102.4v25.6z"  horiz-adv-x="1024" />

    
    <glyph glyph-name="zhangbiaochaxun" unicode="&#58993;" d="M891.113362 40.140242l132.886638-132.836775-35.303467-35.303467-132.836775 132.886638a249.31827 249.31827 0 1 0 35.253604 35.253604z m-418.605376-38.74406H149.441371A49.614336 49.614336 0 0 0 99.727308 51.110245V746.70822c0 27.42501 22.089599 49.714063 49.714063 49.714063H299.181924V696.545384h398.909233V796.422283h146.948189c27.474873 0 49.763927-22.089599 49.763926-49.714063v-323.365797a299.181924 299.181924 0 0 1-422.295286-421.946241zM349.045578 846.136346h299.181925v-99.727308H349.045578V846.136346z"  horiz-adv-x="1051" />

    
    <glyph glyph-name="richanghesuan" unicode="&#58994;" d="M891.113362 40.140242l132.886638-132.836775-35.303467-35.303467-132.836775 132.886638a249.31827 249.31827 0 1 0 35.253604 35.253604z m3.68991 383.202181a299.181924 299.181924 0 0 1-422.295286-421.946241H149.441371A49.614336 49.614336 0 0 0 99.727308 51.110245V746.70822c0 27.42501 22.089599 49.714063 49.714063 49.714063H249.31827V646.68173h149.590963V796.422283h199.454616V646.68173h149.590962V796.422283h97.084535c27.474873 0 49.763927-22.089599 49.763926-49.714063v-323.365797zM299.181924 846.136346h49.863654v-149.590962H299.181924V846.136346z m349.045579 0h49.863654v-149.590962h-49.863654V846.136346z"  horiz-adv-x="1051" />

    
    <glyph glyph-name="zhiliangguanli" unicode="&#58995;" d="M647.3216 435.2L537.6 588.8l-150.8864-265.216L298.6496 435.2H204.8v-51.2h76.8l105.1136-139.1616 155.392 251.4432L614.4 393.4208V384h6.656l1.9456-2.816 4.1984 2.816H768V435.2h-120.6784zM51.2 793.6h870.4a51.2 51.2 0 0 0 51.2-51.2v-614.4a51.2 51.2 0 0 0-51.2-51.2H51.2a51.2 51.2 0 0 0-51.2 51.2V742.4a51.2 51.2 0 0 0 51.2 51.2z m128-819.2h614.4a25.6 25.6 0 1 0 0-51.2h-614.4a25.6 25.6 0 1 0 0 51.2zM409.6 76.8h153.6v-102.4H409.6v102.4zM51.2 742.4v-614.4h870.4V742.4H51.2z m102.4-51.2h665.6a51.2 51.2 0 0 0 51.2-51.2v-409.6a51.2 51.2 0 0 0-51.2-51.2H153.6a51.2 51.2 0 0 0-51.2 51.2V640a51.2 51.2 0 0 0 51.2 51.2z"  horiz-adv-x="1024" />

    
    <glyph glyph-name="baojiaguanli" unicode="&#58996;" d="M869.8846 590.841171L870.396595-96.614698a31.948496 31.948496 0 0 0-32.511691-31.334102H134.915582A31.948496 31.948496 0 0 0 102.403891-96.768297V590.841171c0 10.086304 5.017552 19.507015 13.414273 25.394959L467.251625 890.051129a33.740479 33.740479 0 0 0 38.297236 0l350.972666-273.917398a30.873307 30.873307 0 0 0 13.414273-25.24136zM501.043304 281.596109l10.393501 7.833525L665.598541 397.614207 615.576616 435.19465l-154.161735-113.662921h49.970725L357.22387 435.19465 307.201946 397.614207l154.212935-108.184573 10.393501-7.833525H307.201946v-51.199514h153.59854v-51.199513H307.201946v-51.199514h153.59854v-153.598541h48.48594v153.598541H665.598541v51.199514H509.286426v51.199513H665.598541v51.199514H500.992105zM486.400243 537.593677a76.79927 76.79927 0 1 1 0 153.598541 76.79927 76.79927 0 0 1 0-153.598541z"  horiz-adv-x="1024" />

    
    <glyph glyph-name="caigouzhengce" unicode="&#58997;" d="M102.4 844.8h768a51.2 51.2 0 0 0 51.2-51.2v-870.4a51.2 51.2 0 0 0-70.2976-47.4624L486.4 22.6304l-364.9024-146.944A51.2 51.2 0 0 0 51.2-76.8V793.6a51.2 51.2 0 0 0 51.2 51.2z m384-602.624l135.424-71.3216-25.856 151.04 109.568 107.008-151.3984 22.016L486.4 588.3392 418.6624 450.9184l-151.3984-22.016 109.568-107.008-25.856-151.04L486.4 242.176zM51.2 742.2464v-51.3024h870.4V742.2464H51.2z"  horiz-adv-x="1024" />

    
    <glyph glyph-name="jixiaoguanli" unicode="&#58998;" d="M460.8-25.6v157.184A358.5024 358.5024 0 0 0 153.6 486.4V537.6a153.6 153.6 0 0 0-153.6 153.6V793.6a51.2 51.2 0 0 0 51.2 51.2h102.4a51.2 51.2 0 0 0 51.2 51.2h614.4a51.2 51.2 0 0 0 51.2-51.2h102.4a51.2 51.2 0 0 0 51.2-51.2v-102.4a153.6 153.6 0 0 0-153.6-153.6v-51.2a358.5024 358.5024 0 0 0-307.2-354.816V-25.6h102.4a102.4 102.4 0 0 0 102.4-102.4H256a102.4 102.4 0 0 0 102.4 102.4h102.4z m409.6 819.2v-204.8a102.4 102.4 0 0 1 102.4 102.4V793.6h-102.4zM153.6 793.6H51.2v-102.4a102.4 102.4 0 0 1 102.4-102.4V793.6z m307.2-102.4v-307.2h51.2V691.2H460.8z m153.6-102.4v-204.8h51.2V588.8h-51.2zM307.2 537.6v-153.6h51.2V537.6H307.2z"  horiz-adv-x="1024" />

    
    <glyph glyph-name="jingjiaguanli" unicode="&#58999;" d="M889.662054-103.052607l-368.047766 443.090607-95.057677-92.498236-246.986157 266.796239 260.96071 253.999028 246.986157-266.796238-90.450682-88.044807 405.41562-406.746529c29.535961-31.839459 28.153862-82.209278-3.020142-112.564261a76.322562 76.322562 0 0 0-109.800063 2.764197zM732.000424 540.339934L480.663215 811.896735A50.676952 50.676952 0 0 0 482.506014 882.281391a47.708 47.708 0 0 0 68.644235-1.740421l251.439586-271.607989a50.676952 50.676952 0 0 0-1.893987-70.384657 47.708 47.708 0 0 0-68.593046 1.79161zM134.984973 475.534861l251.490775-271.5568a50.676952 50.676952 0 0 0-1.893987-70.384656 47.708 47.708 0 0 0-68.593047 1.689231L64.497939 406.890626a50.676952 50.676952 0 0 0 1.842799 70.384656 47.708 47.708 0 0 0 68.644235-1.740421zM51.188841-25.399135h563.077249a51.188841 51.188841 0 0 0 0-102.377682H51.188841a51.188841 51.188841 0 0 0 0 102.377682z m51.188841 102.377682h460.699567a51.188841 51.188841 0 0 0 0-102.377682H102.377682a51.188841 51.188841 0 0 0 0 102.377682z"  horiz-adv-x="1024" />

    
    <glyph glyph-name="shouhuoguanli" unicode="&#59000;" d="M153.6 819.2V844.8H0v-51.2h102.4v-716.8h51.2V819.2zM972.8-25.6a51.2 51.2 0 0 0-51.2-51.2h-51.2a51.2 51.2 0 0 0-51.2 51.2v51.2H102.4v51.2h870.4v-102.4zM256 793.6h665.6a51.2 51.2 0 0 0 51.2-51.2v-563.2a51.2 51.2 0 0 0-51.2-51.2H256a51.2 51.2 0 0 0-51.2 51.2V742.4a51.2 51.2 0 0 0 51.2 51.2zM102.4 25.6h153.6v-51.2a51.2 51.2 0 0 0-51.2-51.2H153.6a51.2 51.2 0 0 0-51.2 51.2v51.2zM460.8 640a51.2 51.2 0 1 1 0-102.4h256a51.2 51.2 0 0 1 0 102.4H460.8z"  horiz-adv-x="1024" />

    
    <glyph glyph-name="zhangwuxietong" unicode="&#59001;" d="M102.4 742.4h512a256 256 0 0 0 256-256v-512a51.2 51.2 0 0 0-51.2-51.2H307.2a256 256 0 0 0-256 256V691.2a51.2 51.2 0 0 0 51.2 51.2z m398.592-358.4l10.3936 7.8336L665.6 551.2192 615.5776 588.8 461.4144 423.936h49.9712L357.2224 588.8 307.2 551.2192l154.2144-159.3856 10.3936-7.8336H307.2v-51.2h153.6v-51.2H307.2v-51.2h153.6v-102.4h48.4864v102.4H665.6v51.2H509.2864v51.2H665.6v51.2H500.992zM870.4 25.6v51.2h51.2V588.8c0 60.0576-18.0736 109.9264-51.2 145.408V742.4h-8.192c-35.0208 32.768-84.48 51.2-145.408 51.2H204.8v-51.2H153.6V793.6a51.2 51.2 0 0 0 51.2 51.2h512c153.6 0 256-102.4 256-256v-512a51.2 51.2 0 0 0-51.2-51.2h-51.2z"  horiz-adv-x="1024" />

    
    <glyph glyph-name="xiaoxigonggao" unicode="&#59002;" d="M68.810294 178.317041a25.985896 25.985896 0 0 0-12.150576-3.522646c-31.295391 0-55.18812-22.10588-55.18812-49.674413 0-27.721692 24.096941-49.674414 53.860747-49.674414h862.28247c29.968017 0 53.860746 22.156933 53.860747 49.674414 0 27.568534-24.096941 49.674414-53.860747 49.674413-53.809694 0-67.185538 168.219108-67.185537 168.219109V534.665866c0 173.834921-99.553038 309.89074-256.387364 357.471987 1.174215 5.258443-213.554031 5.105284-212.532974-0.204212-148.819029-47.734406-258.327371-183.790225-258.327371-357.420934v-191.448151S117.872074 278.431661 101.075689 229.369881H588.57926a25.52642 25.52642 0 1 0 0-51.05284H68.810294zM486.47358-128c-70.350814 0-127.478942 69.636074-127.632101 156.170638h255.264201C614.10568-58.057609 557.488081-128 486.47358-128z"  horiz-adv-x="1024" />

    
    <glyph glyph-name="xunjiaguanli" unicode="&#59003;" d="M51.2 793.6h870.4a51.2 51.2 0 0 0 51.2-51.2v-614.4a51.2 51.2 0 0 0-51.2-51.2h-285.184l-129.28-176.0768a25.6 25.6 0 0 0-41.3184 0.1024L337.8176 76.8H51.2a51.2 51.2 0 0 0-51.2 51.2V742.4a51.2 51.2 0 0 0 51.2 51.2z m449.792-358.4l10.3936 7.8336L665.6 602.4192 615.5776 640 461.4144 475.136h49.9712L357.2224 640 307.2 602.4192l154.2144-159.3856 10.3936-7.8336H307.2v-51.2h153.6v-51.2H307.2v-51.2h153.6v-102.4h48.4864v102.4H665.6v51.2H509.2864v51.2H665.6V435.2H500.992z"  horiz-adv-x="1024" />

    
    <glyph glyph-name="tuihuoguanli" unicode="&#59004;" d="M971.1616 601.8048c1.024-4.1472 1.6384-8.4992 1.6384-13.0048v-563.2a51.2 51.2 0 0 0-51.2-51.2H102.4a51.2 51.2 0 0 0-51.2 51.2V588.8c0 4.5056 0.5632 8.8576 1.6384 13.0048A6.4 6.4 0 0 0 51.2 605.9008l115.2 221.8496C166.4 837.12 192.2048 844.8 224 844.8h576c31.7952 0 57.6-7.68 57.6-17.0496L972.8 605.8496a6.4 6.4 0 0 0-1.6384-4.096zM330.9568 281.6l157.2864-157.2352 36.1984 36.1984L403.4048 281.6H716.8v51.2H407.04l117.4016 117.4016L488.2432 486.4l-153.6-153.6H307.2v-51.2h23.7568z m469.0432 512H224a128 128 0 0 1-18.2784-1.2288L126.6176 640h770.7648l-79.104 152.3712A128 128 0 0 1 800 793.6z"  horiz-adv-x="1024" />

    
    <glyph glyph-name="zhaobiaoguanli" unicode="&#59005;" d="M716.810752-18.893891A484.244758 484.244758 0 0 0 486.413056-76.800512c-83.352766 0-161.790382 20.99179-230.397696 57.906621V-128H153.616384v182.884571a486.395136 486.395136 0 1 0 665.593344 0V-128h-102.398976v109.106109zM486.925051 25.598464c212.324277 0 384.456955 171.876681 384.456955 383.893761 0 211.96588-172.132679 383.842562-384.508155 383.842562C274.549575 793.334787 102.416896 621.458105 102.416896 409.492225 102.416896 197.475145 274.549575 25.598464 486.925051 25.598464z m0.767992 102.398976a281.289987 281.289987 0 0 0-280.93159 281.597184c0 155.544045 125.745943 281.597184 280.93159 281.597184a281.289987 281.289987 0 0 0 280.931591-281.597184c0-155.544045-125.797142-281.597184-280.931591-281.597184z m-0.921591 102.398976a179.351806 179.351806 0 0 1 179.505405 179.198208c0 98.96861-80.383196 179.198208-179.505405 179.198208a179.351806 179.351806 0 0 1-179.454205-179.198208c0-98.96861 80.331997-179.198208 179.454205-179.198208zM486.413056 332.795392a76.799232 76.799232 0 1 0 0 153.598464 76.799232 76.799232 0 0 0 0-153.598464z"  horiz-adv-x="1024" />

    
    <glyph glyph-name="zhucerenzheng" unicode="&#59006;" d="M363.52 742.4L475.8528 854.6304a51.2 51.2 0 0 0 72.3968 0L660.48 742.4H819.2a51.2 51.2 0 0 0 51.2-51.2v-158.72l112.2304-112.2816a51.2 51.2 0 0 0 0-72.3968L870.4 235.52V76.8a51.2 51.2 0 0 0-51.2-51.2h-158.72l-112.2816-112.2304a51.2 51.2 0 0 0-72.3968 0L363.52 25.6H204.8a51.2 51.2 0 0 0-51.2 51.2v158.72L41.3696 347.8528a51.2 51.2 0 0 0 0 72.3968L153.6 532.48V691.2a51.2 51.2 0 0 0 51.2 51.2h158.72zM665.6 528.7424l-211.7632-215.6032-9.1136-9.3184-86.4256 88.064a29.7472 29.7472 0 0 1-51.0976-21.4016c0-8.192 3.072-15.872 8.8064-21.7088l107.6224-109.568a29.4912 29.4912 0 0 1 42.2912 0l242.0736 246.3744a30.72 30.72 0 0 1 0 43.1104 29.5936 29.5936 0 0 1-42.3936 0z"  horiz-adv-x="1024" />

    
    <glyph glyph-name="toubiaoguanli" unicode="&#59007;" d="M614.247102 827.707327V717.8452a382.060135 382.060135 0 0 1-126.346564 21.34786c-211.021288 0-382.111329-170.834071-382.111329-381.548196s171.09004-381.497002 382.111329-381.497002c211.072482 0 382.111329 170.782877 382.111328 381.497002 0 45.869742-8.088637 89.845308-22.93487 130.544465h108.633472a486.342125 486.342125 0 1 0-341.463366 339.569192z m-20.938308-208.871145l-82.729355-82.93413a179.332259 179.332259 0 0 1-202.727876-177.642861c0-99.009018 80.323242-179.178678 179.434648-179.178678a179.332259 179.332259 0 0 1 177.694054 204.417275l80.886375 82.26861c13.412804-32.764101 20.835921-68.702224 20.83592-106.329747A280.030676 280.030676 0 0 0 486.927853 79.098811a280.030676 280.030676 0 0 0-279.672319 280.33784 280.030676 280.030676 0 0 0 386.002066 259.399531z m225.150807 225.662747v-152.557846h152.404264L970.915059 640.03046l-101.875877-102.131846h-153.376948l-204.570856-206.004285h-50.067642v51.296295l204.058917 205.79951V742.827827L767.009724 844.806092l51.449877-0.307163z"  horiz-adv-x="1024" />

    
    <glyph glyph-name="weiwaicaigou" unicode="&#59008;" d="M440.32 128H372.0704a68077.824 68077.824 0 0 0-148.4288 113.3568c-44.032 31.744-85.2992 44.6464-121.2416 41.728V742.4a51.2 51.2 0 0 0 51.2 51.2h716.8a51.2 51.2 0 0 0 51.2-51.2v-462.7456a1678.848 1678.848 0 0 0-24.9856 24.3712l-2.2016 2.2016c-20.3264 19.6096-42.9056 26.7776-62.5664 26.5728H492.1856c-17.408-1.3312-33.792-5.12-51.0464-14.2336-33.4848-17.5616-55.6032-49.2032-54.6816-91.904 0.9216-40.96 21.0944-77.312 53.8624-98.6624zM307.2 588.8a51.2 51.2 0 1 1 0 102.4 51.2 51.2 0 0 1 0-102.4z m409.6 0a51.2 51.2 0 1 1 0 102.4 51.2 51.2 0 0 1 0-102.4zM307.2 588.8a204.8 204.8 0 1 1 409.6 0h-51.2a153.6 153.6 0 0 0-307.2 0H307.2z m665.6-427.52v-185.7024a51.2 51.2 0 0 0-51.2-51.2H346.7776s-17.0496-5.4272-31.5904 7.1168a49923.4304 49923.4304 0 0 0-258.1504 229.5808c-12.6464 14.4896-0.8192 39.68-0.8192 39.68s37.888 70.7584 136.192 0a46035.968 46035.968 0 0 1 164.1472-125.2864h258.3552l81.2032 10.5984s-14.5408 58.0608-32.768 59.2896c-50.688 3.6352-142.3872 10.7008-171.8272 15.9744-33.3312 7.3216-53.1968 34.9696-53.8624 66.4064C436.6336 276.6848 492.1856 281.6 492.1856 281.6h340.7872s13.824 0.3072 27.136-13.5168c13.568-13.7216 97.6896-94.208 112.6912-106.752z"  horiz-adv-x="1024" />

    
    <glyph glyph-name="xuqiuguanli" unicode="&#59009;" d="M870.4 102.5536a51.2 51.2 0 0 1-30.1056 46.592l-123.3408 55.7568c-25.088 14.336-50.5856 31.0272-50.5856 54.0672V791.9616a51.2 51.2 0 0 1-51.0464 51.2L144.4864 844.8A41.6768 41.6768 0 0 1 102.4 803.2256v-838.4512c0-22.9376 19.2512-41.5744 42.0864-41.5744h683.8272a41.6768 41.6768 0 0 1 42.0864 41.5744v137.728zM256.6144 537.088v102.4h254.976v-102.4h-254.976zM716.8 304.9984l153.6-72.448V435.1488h-153.6v-130.1504zM716.8 486.4h153.6V640h-153.6v-153.6z m0 204.8h153.6V844.8h-153.6v-153.6z"  horiz-adv-x="1024" />

    
    <glyph glyph-name="vmicaigou" unicode="&#59010;" d="M870.4 638.72c-15.36-2.7648-29.3376-9.8816-40.2432-20.7872l-419.1232-419.6352c-1.3312-2.5088-1.9968-3.328-2.2528-4.4032l-49.3056-180.7872a31.0784 31.0784 0 0 1 7.8848-29.9008 30.8224 30.8224 0 0 1 29.696-7.7824l179.4048 48.9984a7.2704 7.2704 0 0 1 6.2464 2.048L870.4 314.368v-339.6096c0-28.4672-22.9888-51.5584-51.5584-51.5584H153.9584A51.5072 51.5072 0 0 0 102.4-25.2416V639.6416C102.4 668.1088 125.3888 691.2 153.9584 691.2h664.8832C847.3088 691.2 870.4 668.2112 870.4 639.6416v-0.9216z m22.2208-219.8528L819.2 493.568l74.5984 69.8368c7.0656 7.0656 20.736 6.0416 28.8768-2.048l43.0592-43.2128A23.552 23.552 0 0 0 972.8 501.76a17.408 17.408 0 0 0-4.9152-12.3904l-75.264-70.4512z m-421.376-260.4032L746.9568 435.2 819.2 361.6768l-273.8688-272.4864-124.3648-49.664 50.3296 118.9376zM256 691.2c0 113.152 103.168 204.8 230.4 204.8S716.8 804.352 716.8 691.2h-51.2c0 84.8384-80.2304 153.6-179.2 153.6S307.2 776.0384 307.2 691.2H256z"  horiz-adv-x="1024" />

    
    <glyph glyph-name="genggai" unicode="&#59012;" d="M113.777778 384a170.666667 170.666667 0 0 0 170.666666 170.666667h688.241778L967.111111 611.555556H284.444444a227.555556 227.555556 0 0 1-227.555555-227.555556h56.888889z m0 0a170.666667 170.666667 0 0 0 170.666666 170.666667h688.241778L967.111111 611.555556H284.444444a227.555556 227.555556 0 0 1-227.555555-227.555556v-56.888889l56.888889-1.137778V384z m284.444444-284.444444h341.333334a227.555556 227.555556 0 0 1 227.555555 227.555555V384h-56.888889v-56.888889a170.666667 170.666667 0 0 0-170.666666-170.666667H56.888889v-56.888888h24.746667L398.222222-71.111111v170.666667z m227.555556 682.666666l341.333333-184.035555V554.666667h-341.333333V782.222222z"  horiz-adv-x="1024" />

    
    <glyph glyph-name="tupianyulanguanbi" unicode="&#59013;" d="M204.8 691.2h51.2v-51.2H204.8V691.2zM153.6 742.4h51.2v-51.2H153.6V742.4zM102.4 793.6h51.2v-51.2H102.4V793.6zM51.2 844.8h51.2v-51.2H51.2V844.8zM0 896h51.2v-51.2H0V896z m409.6-409.6h51.2v-51.2H409.6V486.4z m204.8-204.8h51.2v-51.2h-51.2v51.2zM307.2 588.8h51.2v-51.2H307.2V588.8z m204.8-204.8h51.2v-51.2h-51.2v51.2z m204.8-204.8h51.2v-51.2h-51.2v51.2zM256 640h51.2v-51.2H256V640z m204.8-204.8h51.2v-51.2H460.8V435.2z m204.8-204.8h51.2v-51.2h-51.2v51.2zM358.4 537.6h51.2v-51.2H358.4V537.6z m204.8-204.8h51.2v-51.2h-51.2v51.2z m204.8-204.8h51.2v-51.2h-51.2v51.2z m51.2-51.2h51.2v-51.2h-51.2v51.2z m51.2-51.2h51.2v-51.2h-51.2v51.2z m51.2-51.2h51.2v-51.2h-51.2v51.2zM819.2 742.4v-51.2h-51.2V742.4h51.2z m51.2 51.2v-51.2h-51.2V793.6h51.2z m51.2 51.2v-51.2h-51.2V844.8h51.2z m51.2 51.2v-51.2h-51.2V896h51.2z m-358.4-358.4v-51.2h-51.2V537.6h51.2z m-204.8-204.8v-51.2H358.4v51.2h51.2z m307.2 307.2v-51.2h-51.2V640h51.2z m-409.6-409.6v-51.2H256v51.2h51.2z m460.8 460.8v-51.2h-51.2V691.2h51.2z m-204.8-204.8v-51.2h-51.2V486.4h51.2z m-204.8-204.8v-51.2H307.2v51.2h51.2z m307.2 307.2v-51.2h-51.2V588.8h51.2z m-204.8-204.8v-51.2H409.6v51.2h51.2z m-204.8-204.8v-51.2H204.8v51.2h51.2z m-51.2-51.2v-51.2H153.6v51.2h51.2z m-51.2-51.2v-51.2H102.4v51.2h51.2z m-51.2-51.2v-51.2H51.2v51.2h51.2z m-51.2-51.2v-51.2H0v51.2h51.2z"  horiz-adv-x="1024" />

    
    <glyph glyph-name="baobiaokongjianxiala" unicode="&#59014;" d="M117.8624 567.296c-20.48-25.7024-20.8896-69.632 0.512-96.5632L416.8704 97.28c21.7088-27.136 56.0128-27.136 77.2096-0.7168a65.8432 65.8432 0 0 1 8.9088 15.0528l301.6704 377.5488a69.632 69.632 0 0 1 0.6144 84.2752c-17.92 22.4256-666.2144 20.2752-687.4112-6.144z"  horiz-adv-x="1024" />

    
    <glyph glyph-name="zitiyanse" unicode="&#59015;" d="M153.6-25.6L460.8 742.4H558.08l314.368-768h-115.8144l-92.928 255.0784H360.192L261.5296-25.6H153.6z m257.7408 356.608h204.032c-60.3648 193.792-94.464 304.5376-102.4 332.288-9.9328-30.6176-43.776-141.3632-101.632-332.288z"  horiz-adv-x="1024" />

    
    <glyph glyph-name="zitibeijingse" unicode="&#59016;" d="M500.6336 771.3792L107.6736 384h776.6528L500.6336 771.3792z m434.432-362.0352a51.2 51.2 0 0 0 0-72.448l-398.2336-398.2336a51.2 51.2 0 0 0-72.3968 0L66.2016 336.896a51.2 51.2 0 0 0 0 72.448L464.384 807.5776a52.224 52.224 0 0 0 0.512 0.512l-0.512 0.512a51.1488 51.1488 0 0 0 72.3456 0l398.336-399.2576zM947.2-25.6c-42.3936 0-76.8 38.1952-76.8 85.3504 0 31.3856 25.6 88.2688 76.8 170.6496 51.2-82.3808 76.8-139.264 76.8-170.6496 0-47.104-34.4064-85.3504-76.8-85.3504z"  horiz-adv-x="1024" />

    
    <glyph glyph-name="guanlianxinxi_l" unicode="&#59017;" d="M512-71.11111100000005A455.111111 455.111111 0 1 0 512 839.111111a455.111111 455.111111 0 0 0 0-910.222222zM283.989333 440.888889a53.361778 53.361778 0 0 1-40.448-16.270222c-11.264-10.524444-15.985778-23.893333-15.985777-40.163556 0-16.213333 4.721778-29.582222 15.985777-41.073778 11.264-10.524444 24.462222-16.270222 40.391111-16.270222 16.042667 0 29.184 5.688889 40.448 16.270222 11.320889 10.524444 16.952889 23.893333 16.952889 41.073778 0 16.270222-5.688889 29.639111-15.985777 40.163556C314.083556 436.110222 299.975111 440.888889 283.989333 440.888889z m227.555556 0a53.361778 53.361778 0 0 1-40.448-16.270222c-11.264-10.524444-15.985778-23.893333-15.985778-40.163556 0-16.213333 4.721778-29.582222 15.985778-41.073778 11.264-10.524444 24.462222-16.270222 40.391111-16.270222 16.042667 0 29.184 5.688889 40.448 16.270222 11.320889 10.524444 16.952889 23.893333 16.952889 41.073778 0 16.270222-5.688889 29.639111-15.985778 40.163556C541.639111 436.110222 527.530667 440.888889 511.544889 440.888889z m227.555555 0a53.361778 53.361778 0 0 1-40.448-16.270222c-11.264-10.524444-15.985778-23.893333-15.985777-40.163556 0-16.213333 4.721778-29.582222 15.985777-41.073778 11.264-10.524444 24.462222-16.270222 40.391112-16.270222 16.042667 0 29.184 5.688889 40.448 16.270222 11.320889 10.524444 16.952889 23.893333 16.952888 41.073778 0 16.270222-5.688889 29.639111-15.985777 40.163556-11.264 11.491556-25.372444 16.270222-41.358223 16.270222z"  horiz-adv-x="1024" />

    
    <glyph glyph-name="tishixinxi_l" unicode="&#59018;" d="M512-71.111111A455.111111 455.111111 0 1 0 512 839.111111a455.111111 455.111111 0 0 0 0-910.222222z m6.656 739.555555c-56.263111 0-100.010667-16.270222-131.242667-48.753777C356.124444 588.629333 341.333333 547.271111 341.333333 495.502222h61.724445c0 36.181333 8.533333 64.284444 25.770666 84.992 18.773333 24.348444 47.616 36.181333 86.698667 36.181334 32.768 0 58.595556-8.135111 76.515556-25.884445 17.180444-16.213333 26.567111-39.139556 26.567111-68.664889 0-20.707556-7.793778-39.936-23.438222-58.368-4.664889-5.916444-14.051556-14.791111-26.567112-26.624-42.154667-35.441778-67.925333-63.544889-78.848-85.674666a140.174222 140.174222 0 0 1-14.051555-64.284445V270.222222H538.168889v17.009778c0 19.911111 4.664889 37.660444 14.791111 53.930667 7.850667 13.312 19.569778 26.567111 36.750222 40.618666 34.360889 28.842667 55.466667 48.014222 63.260445 56.888889 19.569778 24.405333 29.696 53.191111 29.696 86.471111 0 44.316444-14.791111 79.075556-43.747556 104.106667C608.483556 655.928889 568.604444 668.444444 518.656 668.444444z m-7.111111-455.111111a53.361778 53.361778 0 0 1-40.448-16.270222c-11.264-10.524444-15.985778-23.893333-15.985778-40.163555 0-16.213333 4.721778-29.582222 15.985778-41.073778 11.264-10.524444 24.462222-16.270222 40.391111-16.270222 16.042667 0 29.184 5.688889 40.448 16.270222 11.320889 10.524444 16.952889 23.893333 16.952889 41.073778 0 16.270222-5.688889 29.639111-15.985778 40.163555-11.264 11.491556-25.372444 16.270222-41.358222 16.270222z"  horiz-adv-x="1024" />

    
    <glyph glyph-name="guanlianxinxi" unicode="&#59019;" d="M512-71.111111A455.111111 455.111111 0 1 0 512 839.111111a455.111111 455.111111 0 0 0 0-910.222222z m0 56.888889A398.222222 398.222222 0 1 1 512 782.222222a398.222222 398.222222 0 0 1 0-796.444444zM283.989333 440.888889c15.928889 0 30.094222-4.778667 41.358223-16.270222 10.353778-10.524444 15.985778-23.893333 15.985777-40.163556 0-17.180444-5.688889-30.549333-16.952889-41.073778-11.264-10.524444-24.462222-16.270222-40.391111-16.270222-15.985778 0-29.184 5.688889-40.448 16.270222A55.239111 55.239111 0 0 0 227.555556 384.455111c0 16.270222 4.721778 29.639111 15.985777 40.163556A53.361778 53.361778 0 0 0 283.932444 440.888889z m227.555556 0c15.928889 0 30.094222-4.778667 41.358222-16.270222 10.353778-10.524444 15.985778-23.893333 15.985778-40.163556 0-17.180444-5.688889-30.549333-16.952889-41.073778-11.264-10.524444-24.462222-16.270222-40.391111-16.270222-15.985778 0-29.184 5.688889-40.448 16.270222A55.239111 55.239111 0 0 0 455.111111 384.455111c0 16.270222 4.721778 29.639111 15.985778 40.163556A53.361778 53.361778 0 0 0 511.488 440.888889z m227.555555 0c15.928889 0 30.094222-4.778667 41.358223-16.270222 10.353778-10.524444 15.985778-23.893333 15.985777-40.163556 0-17.180444-5.688889-30.549333-16.952888-41.073778-11.264-10.524444-24.462222-16.270222-40.391112-16.270222-15.985778 0-29.184 5.688889-40.448 16.270222A55.239111 55.239111 0 0 0 682.666667 384.455111c0 16.270222 4.721778 29.639111 15.985777 40.163556a53.361778 53.361778 0 0 0 40.391112 16.270222z"  horiz-adv-x="1024" />

    
    <glyph glyph-name="tishixinxi" unicode="&#59020;" d="M512-71.111111A455.111111 455.111111 0 1 0 512 839.111111a455.111111 455.111111 0 0 0 0-910.222222z m0 56.888889A398.222222 398.222222 0 1 1 512 782.222222a398.222222 398.222222 0 0 1 0-796.444444z m6.656 682.666666c49.948444 0 89.827556-12.515556 120.263111-39.139555C667.875556 604.16 682.666667 569.457778 682.666667 525.084444c0-33.28-10.126222-62.065778-29.696-86.471111-7.793778-8.874667-28.899556-28.046222-63.260445-56.888889-17.180444-14.051556-28.899556-27.306667-36.693333-40.618666-10.183111-16.270222-14.848-34.019556-14.848-53.930667V270.222222H475.704889v17.009778c0 24.348444 4.664889 45.795556 14.051555 64.284444 10.922667 22.186667 36.693333 50.232889 78.848 85.674667 12.515556 11.832889 21.902222 20.707556 26.567112 26.624 15.644444 18.432 23.438222 37.660444 23.438222 58.368 0 29.582222-9.386667 52.451556-26.567111 68.664889-17.92 17.749333-43.747556 25.884444-76.515556 25.884444-39.082667 0-67.982222-11.832889-86.698667-36.181333-17.180444-20.707556-25.770667-48.810667-25.770666-84.992H341.333333c0 51.768889 14.791111 93.070222 46.08 124.131556C418.702222 652.174222 462.392889 668.444444 518.656 668.444444z m-7.111111-455.111111c15.928889 0 30.094222-4.778667 41.358222-16.270222 10.353778-10.524444 15.985778-23.893333 15.985778-40.163555 0-17.180444-5.688889-30.549333-16.952889-41.073778-11.264-10.524444-24.462222-16.270222-40.391111-16.270222-15.985778 0-29.184 5.688889-40.448 16.270222A55.239111 55.239111 0 0 0 455.111111 156.899556c0 16.270222 4.721778 29.639111 15.985778 40.163555a53.361778 53.361778 0 0 0 40.391111 16.270222z"  horiz-adv-x="1024" />

    
    <glyph glyph-name="jihua" unicode="&#59021;" d="M870.4 689.92c-15.36-2.7648-29.3376-9.8816-40.2432-20.7872l-419.1232-419.6352c-1.3312-2.5088-1.9968-3.328-2.2528-4.4032l-49.3056-180.7872a31.0784 31.0784 0 0 1 7.8848-29.9008 30.8224 30.8224 0 0 1 29.696-7.7824l179.4048 48.9984a7.2704 7.2704 0 0 1 6.2464 2.048L870.4 365.568V25.6c0-28.2624-22.9888-51.2-51.5584-51.2H153.9584A51.3024 51.3024 0 0 0 102.4 25.6V742.4c0 28.2624 22.9888 51.2 51.5584 51.2h664.8832C847.3088 793.6 870.4 770.816 870.4 742.4v-52.48zM256 588.8v-51.2h307.2V588.8H256z m0-153.6v-51.2h153.6V435.2H256z m619.9808 20.2752l-73.4208 74.6496 74.6496 69.8368c7.0144 7.0656 20.736 6.0416 28.8256-2.0992l43.0592-43.1616a23.552 23.552 0 0 0 7.0656-16.384 17.408 17.408 0 0 0-4.9152-12.3904l-75.264-70.4512z m-404.6848-245.8112L746.9056 486.4 819.2 412.8768l-273.8688-272.4864-124.3648-49.664 50.3296 118.9376z"  horiz-adv-x="1024" />

    
    <glyph glyph-name="kucun" unicode="&#59022;" d="M87.9104 586.24l343.9616-166.0928a51.2 51.2 0 0 0 28.928-46.08v-407.6544a25.6 25.6 0 0 0-38.144-22.3232L77.2608 138.752A51.2 51.2 0 0 0 51.2 183.296V563.2a25.6 25.6 0 0 0 36.7104 23.04zM153.6 435.2v-51.2l204.8-102.4v51.2L153.6 435.2z m352.9728 405.504l375.0912-159.0784a22.272 22.272 0 0 0 0-41.6256L506.5728 480.8704c-12.8-5.4272-27.5456-5.4272-40.3456 0L91.136 640a22.272 22.272 0 0 0 0 41.6256L466.2272 840.704c12.8 5.4784 27.5456 5.4784 40.3456 0z m378.3168-254.464A25.6 25.6 0 0 0 921.6 563.2v-379.9552a51.2 51.2 0 0 0-26.0608-44.6464l-345.3952-194.6112A25.6 25.6 0 0 0 512-33.792v407.7568a51.2 51.2 0 0 0 28.928 46.08l343.9616 166.144z"  horiz-adv-x="1024" />

    
    <glyph glyph-name="fanli" unicode="&#59023;" d="M718.1824-25.6H305.8176A230.4 230.4 0 0 1 51.2 229.0176V588.8a51.2 51.2 0 0 0 51.2 51.2h819.2a51.2 51.2 0 0 0 51.2-51.2v-359.7824A230.4 230.4 0 0 1 718.1824-25.6zM204.8 537.6a51.2 51.2 0 1 1 0-102.4h614.4a51.2 51.2 0 0 1 0 102.4H204.8z m0 102.4v-102.4h614.4V640H204.8z m-153.6-462.592A179.2 179.2 0 0 0 254.208-25.6H102.4a51.2 51.2 0 0 0-51.2 51.2v151.808zM277.2992 486.4a256 256 0 1 0 469.4016 0H277.2992zM972.8 177.408V25.6a51.2 51.2 0 0 0-51.2-51.2h-151.808A179.2 179.2 0 0 0 972.8 177.408z"  horiz-adv-x="1024" />

    
    <glyph glyph-name="cuxiao" unicode="&#59024;" d="M362.8032 743.168L475.0336 855.3984a51.2 51.2 0 0 0 72.3968 0l112.2816-112.2304h158.72a51.2 51.2 0 0 0 51.2-51.2v-158.72l112.2816-112.2816a51.2 51.2 0 0 0 0-72.3968l-112.2816-112.2816v-158.72a51.2 51.2 0 0 0-51.2-51.2h-158.72l-112.2816-112.2816a51.2 51.2 0 0 0-72.3968 0l-112.2304 112.2816h-158.72a51.2 51.2 0 0 0-51.2 51.2v158.72L40.5504 348.5696a51.2 51.2 0 0 0 0 72.3968l112.2304 112.2304v158.72a51.2 51.2 0 0 0 51.2 51.2h158.72z m310.272-161.8432L307.2 215.3984l36.1984-36.1984 365.9264 365.8752-36.2496 36.2496zM307.2 588.8v-102.4h102.4V588.8H307.2z m307.2-307.2v-102.4h102.4v102.4h-102.4z"  horiz-adv-x="1024" />

    
    <glyph glyph-name="dingdan" unicode="&#59025;" d="M307.2 793.6v-102.4h358.4V793.6h153.2416C847.3088 793.6 870.4 770.6112 870.4 742.0416c-15.36-3.6864 10.9056-39.68 0-50.5856l-459.3664-441.9584c-1.3312-2.5088-1.9968-3.328-2.2528-4.4032l-49.3056-180.7872a31.0784 31.0784 0 0 1 7.8848-29.9008 30.8224 30.8224 0 0 1 29.696-7.7824l179.4048 48.9984a7.2704 7.2704 0 0 1 6.2464 2.048L870.4 365.568v-390.8096c0-28.4672-22.9888-51.5584-51.5584-51.5584H153.9584A51.5072 51.5072 0 0 0 102.4-25.2416V742.0416C102.4 770.5088 125.3888 793.6 153.9584 793.6H307.2z m51.2 51.2h256v-102.4H358.4V844.8z m534.2208-374.7328L819.2 544.768l74.5984 69.8368c7.0656 7.0656 20.736 6.0416 28.8768-2.048l43.0592-43.2128A23.552 23.552 0 0 0 972.8 552.96a17.408 17.408 0 0 0-4.9152-12.3904l-75.264-70.4512z m-421.376-260.4032L746.9568 486.4 819.2 412.8768l-273.8688-272.4864-124.3648-49.664 50.3296 118.9376z"  horiz-adv-x="1024" />

    
    <glyph glyph-name="daifu" unicode="&#59026;" d="M919.552 332.8c-10.4448 10.0864-18.8928 18.3296-22.9376 22.4256l-2.2016 2.2016c-20.3264 19.6096-42.9056 26.7776-62.5664 26.5728H492.1856c-17.408-1.3312-33.792-5.12-51.0464-14.2336-16.896-8.8576-30.9248-21.2992-40.4992-36.9664H134.656a128.512 128.512 0 0 1-40.0896 0.6144A51.2 51.2 0 0 0 51.2 384V691.2a51.2 51.2 0 0 0 51.2 51.2h819.2a51.2 51.2 0 0 0 51.2-51.2v-307.2a51.2 51.2 0 0 0-51.2-51.2h-2.048zM512 435.2a102.4 102.4 0 1 1 0 204.8 102.4 102.4 0 0 1 0-204.8z m460.8-222.72v-185.7024a51.2 51.2 0 0 0-51.2-51.2H346.7776s-17.0496-5.4272-31.5904 7.1168a49923.4304 49923.4304 0 0 0-258.1504 229.5808c-12.6464 14.4896-0.8192 39.68-0.8192 39.68s37.888 70.7584 136.192 0a46035.968 46035.968 0 0 1 164.1472-125.2864h258.3552l81.2032 10.5984s-14.5408 58.0608-32.768 59.2896c-50.688 3.6352-142.3872 10.7008-171.8272 15.9744-33.3312 7.3216-53.1968 34.9696-53.8624 66.4064C436.6336 327.8848 492.1856 332.8 492.1856 332.8h340.7872s13.824 0.3072 27.136-13.5168c13.568-13.7216 97.6896-94.208 112.6912-106.752z"  horiz-adv-x="1024" />

    
    <glyph glyph-name="shangpin" unicode="&#59027;" d="M249.6 499.2v-17.4592c0-130.048 125.0816-200.1408 230.4-200.1408 119.6032-0.256 230.4 79.2064 230.4 204.6976v5.0176a76.8 76.8 0 1 1-45.824-2.6112v-2.4064c0-106.24-121.4464-153.856-184.576-153.6-63.3344 0.1536-185.5488 52.7872-185.5488 153.6v9.4208a73.216 73.216 0 1 1-44.8512 3.4304zM144.2816 793.6h671.488a51.2 51.2 0 0 0 51.0976-48.1792l45.1584-768A51.2 51.2 0 0 0 860.928-76.8H99.1232a51.2 51.2 0 0 0-51.0976 54.2208l45.1584 768A51.2 51.2 0 0 0 144.2816 793.6z"  horiz-adv-x="1024" />

    
    <glyph glyph-name="peisong" unicode="&#59028;" d="M921.6 76.79999999999995a153.6 153.6 0 1 1-307.2 0H409.6a153.6 153.6 0 1 1-307.2 0H51.2a51.2 51.2 0 0 0-51.2 51.2v203.6736l139.4688 279.9616A51.2 51.2 0 0 0 185.2928 640H307.2V742.4a51.2 51.2 0 0 0 51.2 51.2h614.4a51.2 51.2 0 0 0 51.2-51.2v-614.4a51.2 51.2 0 0 0-51.2-51.2h-51.2zM204.8 537.6l-102.4-205.9264A0.5632 0.5632 0 0 0 102.4 332.79999999999995h204.8V537.6H204.8z m464.384-460.9024c0 56.5248 45.824 102.2976 102.4 102.2976a102.3488 102.3488 0 1 0-102.4-102.2976z m-515.584 0c0 56.5248 45.824 102.2976 102.4 102.2976a102.3488 102.3488 0 1 0-102.4-102.2976z"  horiz-adv-x="1024" />

    
    <glyph glyph-name="qudao" unicode="&#59029;" d="M0 256L230.4 384 460.8 256v-256L230.4-128 0 0v256z m256 460.8L486.4 844.8 716.8 716.8v-256L486.4 332.8 256 460.8v256z m256-460.8l230.4 128 230.4-128v-256L742.4-128 512 0v256z m51.2-225.8944l179.2-99.5328 179.2 99.5328v195.7888l-179.2 99.5328-179.2-99.5328v-195.7888z"  horiz-adv-x="1024" />

    
    <glyph glyph-name="yaohuo" unicode="&#59030;" d="M512 145.0496l153.6 153.6-34.1504 34.1504L512 213.3504V486.4H460.8v-273.0496L341.3504 332.8 307.2 298.6496l153.6-153.6V128h51.2v17.0496z m459.1616 405.504c1.024-4.096 1.6384-8.448 1.6384-12.9536v-512a51.2 51.2 0 0 0-51.2-51.2H102.4a51.2 51.2 0 0 0-51.2 51.2V537.6c0 4.5056 0.5632 8.8576 1.6384 13.0048A6.4 6.4 0 0 0 51.2 554.7008l115.2 221.8496C166.4 785.92 192.2048 793.6 224 793.6h576c31.7952 0 57.6-7.68 57.6-17.0496L972.8 554.6496a6.4 6.4 0 0 0-1.6384-4.096zM800 742.4H224a128 128 0 0 1-18.2784-1.2288L126.6176 588.8h770.7648l-79.104 152.3712A128 128 0 0 1 800 742.4z"  horiz-adv-x="1024" />

    
    <glyph glyph-name="yingxiao" unicode="&#59031;" d="M486.4-128a486.4 486.4 0 1 0 0 972.8 486.4 486.4 0 0 0 0-972.8z m0 102.4a384 384 0 1 1 0 768 384 384 0 0 1 0-768z m-1.3824 207.36L285.3888 76.8l38.144 222.3104-161.4848 157.3888 223.1808 32.4608L485.0688 691.2l99.7888-202.24 223.232-32.4608-161.536-157.3888 38.144-222.3104-199.68 104.96z"  horiz-adv-x="1024" />

    
    <glyph glyph-name="zijin" unicode="&#59032;" d="M446.720294 332.797926H307.200922c3.635184 0 0-6.963169 0-6.963168V281.598157H460.80023v-102.399539H307.200922v-51.19977h153.599308v-102.399539h51.19977v102.399539h153.599309v51.19977h-153.599309v102.399539h153.599309v51.199769h-142.23296L512 383.997696H460.80023v-51.19977z m39.679821-460.797926C179.815895-128 51.202074-13.568515 51.202074 221.540827c0 194.815123 145.816944 398.078209 322.609748 462.18032h225.176587C775.781213 619.619036 921.598157 416.35595 921.598157 221.540827 921.598157-13.568515 792.984336-128 486.400115-128zM409.600461 435.197466v-51.19977h51.199769V435.197466H409.600461zM358.400691 486.397235v-51.199769h51.19977V486.397235H358.400691z m153.599309-51.199769v-51.19977h51.19977V435.197466h-51.19977z m102.399539 102.399539v-51.19977h51.19977V537.597005h-51.19977z m-51.199769-51.19977v-51.199769h51.199769V486.397235h-51.199769zM307.200922 537.597005v-51.19977h51.199769V537.597005H307.200922z m355.121602 300.440248l-7.782365-10.137555-0.460798-0.614397L588.287657 741.372088H366.080657L300.340152 827.131702c-0.511998 0.511998-0.819196 1.075195-1.279994 1.638393l-7.116768 9.215958 1.279994 2.662388c-0.614397 2.406389-1.433594 4.710379-1.433593 7.270367 0 12.287945 7.423967 22.681498 17.81752 26.931079l0.870396 1.843192S401.510897 895.636994 477.132957 895.995392c79.154844 0.358398 166.65525-19.302313 166.65525-19.302313l0.921596-1.894392a28.97907 28.97907 0 0 0 17.66392-26.879879c0-2.559988-0.767997-4.761579-1.382393-7.116768l1.331194-2.764787z"  horiz-adv-x="1024" />

    
    <glyph glyph-name="shangjia" unicode="&#59033;" d="M56.888889 725.333333h341.333333v-56.888889H56.888889V725.333333z m0-227.555555h341.333333v-56.888889H56.888889V497.777778z m0-227.555556h341.333333v-56.888889H56.888889v56.888889z m0-227.555555h910.222222v-56.888889H56.888889v56.888889z m512 625.777777h56.888889v-56.888888h-56.888889V668.444444zM512 611.555556h56.888889v-56.888889H512V611.555556zM455.111111 554.666667h56.888889v-56.888889H455.111111V554.666667z m170.666667 170.666666h56.888889v-56.888889h-56.888889V725.333333z m56.888889 56.888889h56.888889v-625.777778h-56.888889V782.222222z m56.888889-56.888889h56.888888v-56.888889h-56.888888V725.333333z m56.888888-56.888889h56.888889v-56.888888h-56.888889V668.444444z m56.888889-56.888888h56.888889v-56.888889h-56.888889V611.555556z m56.888889-56.888889h56.888889v-56.888889h-56.888889V554.666667z"  horiz-adv-x="1024" />

    
    <glyph glyph-name="yuyinshuru" unicode="&#58884;" d="M538.947368 61.763368V-74.105263h188.52379a26.947368 26.947368 0 0 0 0-53.894737H296.528842a26.947368 26.947368 0 0 0 0 53.894737H485.052632v135.868631A350.639158 350.639158 0 0 0 161.899789 410.947368a26.947368 26.947368 0 0 0 53.894737 0c0-163.462737 132.850526-296.421053 296.205474-296.421052A296.690526 296.690526 0 0 1 808.259368 410.947368a26.947368 26.947368 0 0 0 53.894737 0A350.639158 350.639158 0 0 0 538.947368 61.763368zM727.471158 680.421053l-1.347369-269.473685c0-111.454316-102.777263-214.554947-214.123789-214.554947S297.121684 296.151579 297.121684 407.605895L296.582737 680.421053c0 111.400421 104.016842 215.578947 215.417263 215.578947 111.346526 0 215.471158-104.178526 215.471158-215.578947zM512 842.105263C430.403368 842.105263 350.423579 762.071579 350.423579 680.528842l0.592842-272.922947c0-80.734316 78.416842-157.318737 160.983579-157.318737 81.488842 0 160.229053 78.901895 160.229053 160.929684l1.347368 269.312C673.468632 762.179368 593.542737 842.105263 512 842.105263z"  horiz-adv-x="1024" />

    
    <glyph glyph-name="caiwuchuli" unicode="&#59034;" d="M51.2 691.2c0 28.2624 23.296 51.2 51.2 51.2h768c28.2624 0 51.2-22.784 51.2-51.2v-716.8c0-28.2624-21.7088-43.1104-48.384-33.1776l-196.4032 73.216L516.8128-76.8h-29.5936L327.168 14.3872l-227.2768-75.1104c-26.88-8.8576-48.6912 6.656-48.6912 35.1744V691.1488z m51.2 128a25.6 25.6 0 0 0 25.6 25.6h716.8c14.1824 0 25.6-11.8784 25.6-25.6V793.6H102.4v25.6z m563.2-290.4576l-211.7632-215.6032-9.1136-9.3184-86.4256 88.064a29.7472 29.7472 0 0 1-51.0976-21.4016c0-8.192 3.072-15.872 8.8064-21.7088l107.6224-109.568a29.4912 29.4912 0 0 1 42.2912 0l242.0736 246.3744a30.72 30.72 0 0 1 0 43.1104 29.5936 29.5936 0 0 1-42.3936 0z"  horiz-adv-x="1024" />

    
    <glyph glyph-name="duizhangguanli" unicode="&#59035;" d="M256 128v-153.6a51.2 51.2 0 0 1 51.2-51.2h665.6a51.2 51.2 0 0 1 51.2 51.2V588.8a51.2 51.2 0 0 1-51.2 51.2h-102.4v-563.2H256v51.2H102.4a51.2 51.2 0 0 0-51.2 51.2V793.6a51.2 51.2 0 0 0 51.2 51.2h665.6a51.2 51.2 0 0 0 51.2-51.2v-614.4a51.2 51.2 0 0 0-51.2-51.2H256z m193.792 409.6l10.3936 7.8336L614.4 653.6192 564.3776 691.2 410.2144 577.536h49.9712L306.0224 691.2 256 653.6192l154.2144-108.1856 10.3936-7.8336H256v-51.2h153.6v-51.2H256v-51.2h153.6v-153.6h48.4864v153.6H614.4V435.2H458.0864V486.4H614.4V537.6H449.792z"  horiz-adv-x="1024" />

    
    <glyph glyph-name="xianjinliuliang" unicode="&#59037;" d="M486.4-128a486.4 486.4 0 1 0 0 972.8 486.4 486.4 0 0 0 0-972.8zM563.2 588.8v-409.6h51.2V588.8h-51.2zM256 486.4v-307.2h51.2V486.4H256z m153.6-102.4v-204.8h51.2v204.8H409.6z m307.2 102.4v-307.2h51.2V486.4h-51.2z"  horiz-adv-x="1024" />

    
    <glyph glyph-name="qukuailian" unicode="&#59038;" d="M819.195904 281.600512a204.798976 204.798976 0 1 0-183.192684-113.151434l-248.01156 123.90338a204.798976 204.798976 0 1 0 0.153599 182.987885l248.165159 123.596182A204.798976 204.798976 0 1 0 819.195904 486.399488v-204.798976z m-51.199744-6.451168V492.850656a204.798976 204.798976 0 0 0-102.757886 63.282883l-260.0947-129.535352a205.618172 205.618172 0 0 0 0-85.503572l259.582702-129.791352A204.798976 204.798976 0 0 0 767.99616 275.149344z"  horiz-adv-x="1024" />

    
    <glyph glyph-name="fankui" unicode="&#59039;" d="M128 844.8a51.2 51.2 0 0 1-51.2-51.2v-819.2a51.2 51.2 0 0 1 51.2-51.2h768a51.2 51.2 0 0 1 51.2 51.2V793.6a51.2 51.2 0 0 1-51.2 51.2H128z m0 51.2h768a102.4 102.4 0 0 0 102.4-102.4v-819.2a102.4 102.4 0 0 0-102.4-102.4H128a102.4 102.4 0 0 0-102.4 102.4V793.6a102.4 102.4 0 0 0 102.4 102.4z m384-691.2c66.2016 0 111.4112 35.9936 130.8672 103.0144a39.5264 39.5264 0 0 1-37.9904 50.5856H419.1232a39.5776 39.5776 0 0 1-37.9904-50.5856c19.456-67.072 64.6656-103.0144 130.8672-103.0144z m-76.5952 102.4h153.1904c-14.336-35.2768-38.7584-51.2-76.5952-51.2-37.888 0-62.2592 15.9232-76.5952 51.2zM327.5264 452.2496c37.0176 0 67.072 30.5664 67.072 68.3008C394.5984 558.2336 364.544 588.8 327.5264 588.8c-37.0688 0-67.072-30.5664-67.072-68.2496 0-37.7344 30.0032-68.3008 67.072-68.3008z m368.9472 0c37.0688 0 67.072 30.5664 67.072 68.3008 0 37.6832-30.0032 68.2496-67.072 68.2496-37.0176 0-67.072-30.5664-67.072-68.2496 0-37.7344 30.0544-68.3008 67.072-68.3008z"  horiz-adv-x="1024" />

    
    <glyph glyph-name="yunzhijia" unicode="&#59040;" d="M827.197834 109.371077l-4.253539-0.236308 1.969231 0.236308h2.284308zM945.430449 246.153846a137.846154 137.846154 0 0 1-183.926154 129.969231l-50.569846-17.92-1.969231 53.563077A216.615385 216.615385 0 0 1 492.507372 620.307692c-75.342769 0-131.032615-32.807385-170.771692-97.831384a39.305846 39.305846 0 0 0-28.16-18.471385l-5.435077 38.990769C333.117834 616.644923 399.953526 659.692308 492.507372 659.692308a256.078769 256.078769 0 0 0 251.234462-206.493539 215.315692 215.315692 0 0 1-8.585846-2.835692l13.193846-37.139692 39.345231 1.45723a299.52 299.52 0 0 1-0.393847 7.561847A177.230769 177.230769 0 0 0 827.276603 70.025846L354.306757 68.923077l-5.435077 38.990769c1.732923 0.275692 3.544615 0.393846 5.356308 0.393846l470.685538 1.063385A137.846154 137.846154 0 0 1 945.430449 246.153846z m-118.232615-136.782769l-4.253539-0.236308 1.969231 0.236308h2.284308zM945.430449 246.153846a137.846154 137.846154 0 0 1-183.926154 129.969231l-50.569846-17.92-1.969231 53.563077A216.615385 216.615385 0 0 1 492.507372 620.307692c-75.342769 0-131.032615-32.807385-170.771692-97.831384a39.305846 39.305846 0 0 0-28.16-18.471385l-5.435077 38.990769C333.117834 616.644923 399.953526 659.692308 492.507372 659.692308a256.078769 256.078769 0 0 0 251.234462-206.493539 215.315692 215.315692 0 0 1-8.585846-2.835692l13.193846-37.139692 39.345231 1.45723a299.52 299.52 0 0 1-0.393847 7.561847A177.230769 177.230769 0 0 0 827.276603 70.025846L354.306757 68.923077l-5.435077 38.990769c1.732923 0.275692 3.544615 0.393846 5.356308 0.393846l470.685538 1.063385A137.846154 137.846154 0 0 1 945.430449 246.153846z m-903.286154-29.656615l-38.124307-10.436923a216.024615 216.024615 0 0 0 415.586461 113.664l-38.124307-10.397539a176.718769 176.718769 0 0 1-339.337847-92.829538z"  horiz-adv-x="1024" />

    
    <glyph glyph-name="danxuanxiang" unicode="&#59041;" d="M1024 691.2v-716.8a102.4 102.4 0 0 0-102.4-102.4H102.4L1024 691.2z"  horiz-adv-x="1024" />

    
    <glyph glyph-name="liebiaodanxuankuangxuanzhong" unicode="&#59042;" d="M512-71.111111A455.111111 455.111111 0 1 0 512 839.111111a455.111111 455.111111 0 0 0 0-910.222222z m0 56.888889A398.222222 398.222222 0 1 1 512 782.222222a398.222222 398.222222 0 0 1 0-796.444444z m0 113.777778A284.444444 284.444444 0 1 0 512 668.444444a284.444444 284.444444 0 0 0 0-568.888888z"  horiz-adv-x="1024" />

    
    <glyph glyph-name="duoxuanxiang" unicode="&#59043;" d="M658.1248 79.2064l-99.3792 99.4304a46.336 46.336 0 0 1-65.1776-0.3072 45.9776 45.9776 0 0 1-0.3072-65.2288l131.584-131.584c15.872-15.872 41.3184-17.5616 59.392-4.608a46.7456 46.7456 0 0 1 10.496 7.936l220.2624 220.2112a46.2336 46.2336 0 0 1 0 65.536 46.2336 46.2336 0 0 1-65.536 0l-191.3344-191.3856zM1024 742.4v-768a102.4 102.4 0 0 0-102.4-102.4H0L1024 742.4z"  horiz-adv-x="1024" />

    
    <glyph glyph-name="maodian" unicode="&#59052;" d="M225.1264 386.2016A347.8528 347.8528 0 0 0 204.8 503.808C204.8 692.1216 353.792 844.8 537.6 844.8S870.4 692.1216 870.4 503.808c0-41.472-7.2192-81.3056-20.48-118.0672l5.4272 1.9456c2.6624-0.3072-32.1536-123.8016-318.1056-464.4864-189.3376 229.5296-295.0144 384.6656-317.0304 465.408l4.9152-2.4064zM537.6 384a128 128 0 1 1 0 256 128 128 0 0 1 0-256z"  horiz-adv-x="1024" />

    
    <glyph glyph-name="dingweisousuo" unicode="&#59045;" d="M385.820444 390.371556a158.947556 158.947556 0 0 0 132.551112-132.551112l40.391111-261.745777 295.822222 730.567111-730.510222-295.822222 261.745777-40.391112z m-299.804444 85.048888l758.101333 306.972445a51.029333 51.029333 0 0 0 66.275556-66.275556l-307.029333-758.101333a49.834667 49.834667 0 0 0-65.592889-27.022222 51.370667 51.370667 0 0 0-31.004445 39.480889l-43.121778 279.495111A102.741333 102.741333 0 0 1 377.969778 335.644444L98.417778 378.766222A51.256889 51.256889 0 0 0 55.523556 436.337778a49.493333 49.493333 0 0 0 30.492444 39.082666z"  horiz-adv-x="1024" />

    
    <glyph glyph-name="chaxuntiaojian" unicode="&#59046;" d="M740.465778 138.865778l160.256-160.256a955.847111 955.847111 0 0 0-40.220445-40.220445l-160.256 160.256a256 256 0 1 0 40.220445 40.220445z m113.777778 300.942222V698.140444c0 21.162667-12.231111 27.420444-32.995556 27.420445l-668.273778-1.251556c-20.707556 0-39.822222-18.488889-39.822222-39.651555V27.306667c0-21.105778 20.309333-42.666667 41.016889-42.666667h242.346667l0.967111-56.775111H148.536889c-50.517333 0-91.648 42.951111-91.648 94.492444V688.810667C56.888889 740.352 98.019556 782.222222 148.48 782.222222h677.262222c50.574222 0 85.219556-32.540444 85.219556-84.081778v-258.275555h-56.775111zM540.444444 99.555556a199.111111 199.111111 0 1 1 0 398.222222 199.111111 199.111111 0 0 1 0-398.222222z"  horiz-adv-x="1024" />

    
    <glyph glyph-name="gengxinguanli" unicode="&#59047;" d="M486.4-128a486.4 486.4 0 1 0 0 972.8 486.4 486.4 0 0 0 0-972.8zM204.8 386.4064s84.48 180.3264 342.3744 86.272l-21.0944-44.4928s-19.0464-43.52 42.5984-34.4576l172.9024 38.0416s39.424 9.984 21.9648 41.984l-94.208 156.1088s-29.3376 25.8048-48.8448-4.9152l-20.8384-44.4416c-0.256 0-319.0784 120.064-394.8544-194.048z m172.1344-250.7264S700.2112 26.3168 768 332.8c0 0-79.872-176.896-341.1968-91.2896l20.1728 43.52s17.7664 42.9056-43.776 32.6144l-172.5952-40.8064s-39.3216-10.496-20.8896-41.216l98.7648-149.6064s29.6448-24.3712 48.6912 6.144l19.7632 43.52z"  horiz-adv-x="1024" />

    
    <glyph glyph-name="yingyongguanli" unicode="&#59048;" d="M102.4 844.8h307.2a51.2 51.2 0 0 0 51.2-51.2v-307.2a51.2 51.2 0 0 0-51.2-51.2H102.4a51.2 51.2 0 0 0-51.2 51.2V793.6a51.2 51.2 0 0 0 51.2 51.2z m0-512h307.2a51.2 51.2 0 0 0 51.2-51.2v-307.2a51.2 51.2 0 0 0-51.2-51.2H102.4a51.2 51.2 0 0 0-51.2 51.2v307.2a51.2 51.2 0 0 0 51.2 51.2zM816.64 859.8016L1010.8416 665.6a51.2 51.2 0 0 0 0-72.3968l-196.0448-196.0448a51.2 51.2 0 0 0-72.3968 0L548.1984 591.36a51.2 51.2 0 0 0 0 72.3968L744.2432 859.8016a51.2 51.2 0 0 0 72.3968 0zM614.4 332.8h307.2a51.2 51.2 0 0 0 51.2-51.2v-307.2a51.2 51.2 0 0 0-51.2-51.2h-307.2a51.2 51.2 0 0 0-51.2 51.2v307.2a51.2 51.2 0 0 0 51.2 51.2z"  horiz-adv-x="1025" />

    
    </font>
</defs>
</svg>
